<?xml version="1.0" standalone="no"?>
<!DOCTYPE svg PUBLIC "-//W3C//DTD SVG 1.1//EN" "http://www.w3.org/Graphics/SVG/1.1/DTD/svg11.dtd" >
<svg xmlns="http://www.w3.org/2000/svg" xmlns:xlink="http://www.w3.org/1999/xlink" version="1.1">
<metadata></metadata>
<defs>
<font id="work_sansthin" horiz-adv-x="1200" >
<font-face units-per-em="2048" ascent="1638" descent="-410" />
<missing-glyph horiz-adv-x="575" />
<glyph unicode="&#xfb01;" horiz-adv-x="1036" d="M25 995v29h204v170q0 145 73 228t200 83q100 0 157 -63l-14 -25q-27 33 -60.5 46.5t-82.5 13.5q-113 0 -176.5 -75t-63.5 -208v-170h381v-29h-381v-995h-33v995h-204zM800 1270q0 20 12.5 32.5t32.5 12.5t33 -12.5t13 -32.5t-12.5 -32.5t-33.5 -12.5q-20 0 -32.5 12 t-12.5 33zM829 0v1024h33v-1024h-33z" />
<glyph unicode="&#xfb02;" horiz-adv-x="1140" d="M25 995v29h204v170q0 145 73 228t200 83q100 0 157 -63l-14 -25q-27 33 -60.5 46.5t-82.5 13.5q-113 0 -176.5 -75t-63.5 -208v-170h381v-29h-381v-995h-33v995h-204zM821 219v1276h33v-1276q0 -111 36.5 -161t112.5 -50q43 0 67.5 6t51.5 19v-29q-45 -25 -119 -24 q-92 0 -137 57t-45 182z" />
<glyph horiz-adv-x="0" />
<glyph horiz-adv-x="682" />
<glyph unicode=" "  horiz-adv-x="575" />
<glyph unicode="&#x09;" horiz-adv-x="575" />
<glyph unicode="&#xa0;" horiz-adv-x="575" />
<glyph unicode="!" horiz-adv-x="372" d="M141 35q0 20 12.5 32.5t32.5 12.5q21 0 33 -12.5t12 -32.5t-12 -32.5t-33 -12.5q-20 0 -32.5 12t-12.5 33zM170 348v1004h33v-1004h-33z" />
<glyph unicode="&#x22;" horiz-adv-x="493" d="M135 1067v326h35v-326h-35zM323 1067v326h35v-326h-35z" />
<glyph unicode="#" horiz-adv-x="1294" d="M88 436v29h287l67 442h-292v29h296l64 416h33l-64 -416h404l63 416h33l-64 -416h291v-29h-295l-67 -442h301v-29h-305l-66 -436h-33l66 436h-404l-65 -436h-33l66 436h-283zM408 465h403l68 442h-404z" />
<glyph unicode="$" horiz-adv-x="1187" d="M117 350l30 17q31 -156 152 -244t297 -94v622q-150 31 -239 62.5t-150.5 99.5t-61.5 184q0 94 54.5 175t157 130.5t239.5 49.5v204h29v-204q344 -12 428 -303l-27 -21q-74 283 -401 295v-643q147 -31 236 -61.5t149.5 -97t60.5 -183.5q0 -98 -55 -175t-155.5 -120 t-235.5 -43v-205h-29v205q-186 6 -313 97t-166 253zM178 997q0 -104 56.5 -164.5t140.5 -89t221 -57.5v637q-125 0 -220 -43t-146.5 -116.5t-51.5 -166.5zM625 29q178 2 295.5 84t117.5 225q0 102 -55 161.5t-138 89t-220 58.5v-618z" />
<glyph unicode="%" horiz-adv-x="1546" d="M80 1008q0 143 71.5 243.5t213.5 100.5q141 0 211.5 -100.5t70.5 -243.5t-70.5 -240.5t-211.5 -97.5t-213 97t-72 241zM113 1008q0 -133 63.5 -221.5t188.5 -88.5t187 88t62 222q0 133 -63.5 224t-185.5 91q-125 0 -188.5 -91t-63.5 -224zM295 0l915 1352h39l-915 -1352 h-39zM897 340q0 143 71.5 242.5t215.5 99.5q141 0 211.5 -99.5t70.5 -242.5t-70.5 -241.5t-211.5 -98.5t-214 98.5t-73 241.5zM930 340q0 -133 64.5 -222t189.5 -89q123 0 186.5 89t63.5 222t-63.5 223t-186.5 90q-125 0 -189.5 -90t-64.5 -223z" />
<glyph unicode="&#x26;" horiz-adv-x="1171" d="M92 285q0 100 44 175t119 134t202 133q-109 145 -146 216t-37 149q0 125 78 198.5t209 73.5q125 0 200 -65.5t75 -176.5q0 -113 -70 -202t-252 -195q-8 -4 -12 -8l92 -123l53 -70q164 -215 236 -301q68 98 99.5 233.5t31.5 293.5h30q0 -158 -33.5 -301.5t-105.5 -249.5 q94 -111 155.5 -152t125.5 -41l-2 -26q-72 0 -137.5 43t-159.5 151q-147 -195 -408 -194q-168 0 -277.5 81.5t-109.5 223.5zM125 285q0 -127 99.5 -202t248.5 -75q256 1 393 191q-104 125 -237 303q-55 74 -154 200q-123 -72 -194.5 -126t-113.5 -124.5t-42 -166.5z M307 1092q0 -52 13.5 -93t48 -96t112.5 -160l13 7q176 102 242.5 185t66.5 187q0 96 -65.5 154.5t-176.5 58.5q-115 0 -184.5 -66.5t-69.5 -176.5z" />
<glyph unicode="'" horiz-adv-x="305" d="M135 1067v326h35v-326h-35z" />
<glyph unicode="(" horiz-adv-x="518" d="M109 584q0 315 91 541.5t283 390.5l17 -21q-184 -154 -272.5 -379t-88.5 -532t88 -532.5t273 -379.5l-17 -20q-193 164 -283.5 390t-90.5 542z" />
<glyph unicode=")" horiz-adv-x="518" d="M18 -328q184 154 272.5 379t88.5 533q0 307 -88 532t-273 379l17 21q192 -164 283.5 -390.5t91.5 -541.5t-91.5 -541.5t-283.5 -390.5z" />
<glyph unicode="*" horiz-adv-x="1044" d="M94 1174l10 30l261 -84l145 -51l-4 152v274h33v-274l-4 -152l143 51l262 84l10 -30l-262 -87l-145 -43l92 -120l162 -224l-27 -18l-162 221l-86 127l-86 -127l-162 -221l-26 18l162 224l92 120l-148 43z" />
<glyph unicode="+" horiz-adv-x="1236" d="M143 633v29h459v454h33v-454h459v-29h-459v-471h-33v471h-459z" />
<glyph unicode="," horiz-adv-x="344" d="M96 -201q51 20 86 72.5t35 103.5q0 14 -8 39h-4q-10 -25 -35 -24q-18 0 -30.5 13t-12.5 32q0 18 13.5 31.5t33.5 13.5q33 0 50.5 -25.5t17.5 -66.5q0 -61 -32 -118.5t-89 -88.5z" />
<glyph unicode="-" horiz-adv-x="854" d="M139 537v32h576v-32h-576z" />
<glyph unicode="." horiz-adv-x="344" d="M127 35q0 20 12.5 32.5t32.5 12.5q21 0 33 -12.5t12 -32.5t-12 -32.5t-33 -12.5q-20 0 -32.5 12t-12.5 33z" />
<glyph unicode="/" horiz-adv-x="714" d="M72 -143l534 1638h35l-535 -1638h-34z" />
<glyph unicode="0" horiz-adv-x="1208" d="M123 676q0 336 125 516t356 180t356 -180t125 -516t-124.5 -516t-356.5 -180q-231 0 -356 180t-125 516zM156 676q0 -324 115.5 -496t332.5 -172t333 172t116 496t-116 495.5t-333 171.5t-332.5 -172t-115.5 -495z" />
<glyph unicode="1" horiz-adv-x="647" d="M57 1051q119 43 219.5 120.5t149.5 180.5h33v-1352h-33v1061v229q-59 -96 -154.5 -163.5t-203.5 -102.5z" />
<glyph unicode="2" horiz-adv-x="1093" d="M96 950q10 193 126 307.5t310 114.5q195 0 305.5 -106.5t110.5 -292.5q0 -137 -83 -267.5t-222 -261.5t-424 -368l-53 -45v-2h57h785v-29h-897v29l65 55q281 231 424 364.5t230.5 264.5t87.5 260q0 174 -103.5 272t-282.5 98q-180 0 -288.5 -109.5t-116.5 -295.5z" />
<glyph unicode="3" horiz-adv-x="1067" d="M88 289l29 18q29 -139 135 -219t283 -80q106 0 192 42t136 119t50 181q0 139 -91 228.5t-255 89.5h-102v28h102q147 0 229.5 92.5t82.5 231.5q0 152 -94.5 237.5t-260.5 85.5q-131 0 -227 -70.5t-133 -195.5l-33 19q45 129 149.5 202.5t243.5 73.5q183 0 285 -93 t102 -259q0 -131 -68.5 -224.5t-193.5 -113.5v-2q131 -10 214 -102.5t83 -229.5q0 -111 -55 -193.5t-148.5 -128.5t-207.5 -46q-182 0 -298 82.5t-149 226.5z" />
<glyph unicode="4" horiz-adv-x="1126" d="M78 420v29l672 903h45v-903h284v-29h-284v-420h-33v420h-684zM115 449h647v868h-2l-88 -121z" />
<glyph unicode="5" horiz-adv-x="1095" d="M102 305l29 12q25 -158 137.5 -233.5t294.5 -75.5q117 0 208 50.5t141.5 139.5t50.5 203q0 113 -49.5 202t-138.5 138.5t-202 49.5q-266 0 -397 -175h-29l62 736h735v-29h-708l-54 -633l-4 -39h2q121 168 393 168q123 0 219.5 -53t149.5 -148.5t53 -216.5 q0 -123 -55 -219t-153.5 -149t-223.5 -53q-397 0 -461 325z" />
<glyph unicode="6" horiz-adv-x="1105" d="M113 676q0 227 65.5 384t180 234.5t262.5 77.5q141 0 228 -66.5t126 -179.5l-31 -14q-31 104 -112.5 167.5t-210.5 63.5q-248 0 -363 -200.5t-115 -493.5q0 -119 21 -252h4q-4 121 54.5 215.5t157.5 145.5t208 51q195 0 306.5 -113.5t111.5 -302.5q0 -188 -116 -300.5 t-310 -112.5q-231 0 -349 176t-118 520zM195 397q0 -111 48 -198.5t136 -139t199 -51.5q182 0 288.5 106.5t106.5 282.5q0 170 -105.5 276.5t-279.5 106.5q-115 0 -204 -56t-139 -144t-50 -183z" />
<glyph unicode="7" horiz-adv-x="1011" d="M45 1323v29h948v-29q-248 -266 -382 -590.5t-167 -732.5h-34q33 399 164 727t382 596h-911z" />
<glyph unicode="8" horiz-adv-x="1150" d="M113 346q0 139 96 238.5t254 126.5v2q-137 29 -215 113.5t-78 213.5q0 152 109.5 242t295.5 90q185 0 295.5 -90t110.5 -242q0 -129 -78 -214t-215 -113v-2q160 -27 255 -126.5t95 -238.5q0 -106 -58 -189t-163.5 -130t-241.5 -47q-135 0 -240.5 47t-163.5 130t-58 189z M145 346q0 -98 54.5 -175t153 -120t222.5 -43q125 0 223.5 43t153 120t54.5 175q0 100 -54.5 179t-153 124t-223.5 45t-223 -45t-152.5 -124t-54.5 -179zM203 1040q0 -141 102.5 -227t269.5 -86q168 0 270.5 86t102.5 227q0 137 -101.5 220t-271.5 83q-169 0 -270.5 -82.5 t-101.5 -220.5z" />
<glyph unicode="9" horiz-adv-x="1159" d="M117 958q0 188 118.5 301t319.5 113q233 0 357 -181t124 -515q0 -227 -61.5 -384t-169 -234.5t-248.5 -77.5q-166 0 -282.5 78.5t-145.5 207.5l35 19q23 -127 125 -202t268 -75q236 0 342.5 195.5t106.5 480.5q0 131 -25 279h-4q6 -125 -55.5 -221.5t-163 -147.5 t-209.5 -51q-199 0 -315.5 112.5t-116.5 302.5zM150 954q0 -172 109.5 -277.5t289.5 -105.5q113 0 206 56.5t146 145.5t53 181q0 111 -50 199t-141 139t-206 51q-186 0 -296.5 -106.5t-110.5 -282.5z" />
<glyph unicode=":" horiz-adv-x="393" d="M152 35q0 20 12.5 32.5t32.5 12.5q21 0 33 -12.5t12 -32.5t-12 -32.5t-33 -12.5q-20 0 -32.5 12t-12.5 33zM152 979q0 20 12.5 32.5t32.5 12.5q21 0 33 -12.5t12 -32.5t-12 -32.5t-33 -12.5q-20 0 -32.5 12t-12.5 33z" />
<glyph unicode=";" horiz-adv-x="393" d="M119 -201q51 20 86 72.5t35 103.5q0 14 -9 39h-4q-8 -25 -34 -24q-18 0 -30.5 13t-12.5 32q0 18 13 31.5t34 13.5q32 0 49.5 -25.5t17.5 -66.5q0 -61 -31.5 -118.5t-89.5 -88.5zM158 979q0 20 12 32.5t33 12.5q20 0 32.5 -12.5t12.5 -32.5t-12.5 -32.5t-32.5 -12.5 q-21 0 -33 12t-12 33z" />
<glyph unicode="&#x3c;" horiz-adv-x="1236" d="M186 594v39l906 475v-37l-877 -457l877 -458v-37z" />
<glyph unicode="=" horiz-adv-x="1236" d="M178 418v28h881v-28h-881zM178 836v28h881v-28h-881z" />
<glyph unicode="&#x3e;" horiz-adv-x="1236" d="M145 119v37l877 458l-877 457v37l906 -475v-39z" />
<glyph unicode="?" horiz-adv-x="968" d="M61 1026q27 170 131.5 258t303.5 88q174 0 281.5 -93t107.5 -253q0 -174 -96.5 -281.5t-309.5 -169.5v-268h-33v287q154 47 242 104.5t126 136t38 191.5q0 147 -99.5 232t-256.5 85q-188 0 -285.5 -83.5t-120.5 -245.5zM418 35q0 20 12 32.5t33 12.5q20 0 32.5 -12.5 t12.5 -32.5t-12.5 -32.5t-32.5 -12.5t-32.5 12t-12.5 33z" />
<glyph unicode="@" horiz-adv-x="1933" d="M111 479q0 270 106.5 472t302 311.5t455.5 109.5q293 0 481.5 -121t272 -317.5t83.5 -431.5q0 -246 -67.5 -384t-185.5 -138q-106 0 -153.5 73.5t-47.5 233.5q-39 -145 -141.5 -226t-251.5 -81q-137 0 -239.5 61t-159 175t-56.5 265q0 147 56.5 259t158.5 172.5t240 60.5 q150 0 252 -79t141 -218v258h28v-664q0 -125 45.5 -193.5t133.5 -68.5q100 0 157.5 131t57.5 363q0 229 -80 418.5t-260 306t-465 116.5q-250 0 -438.5 -105t-291 -301t-102.5 -458q0 -260 107.5 -450.5t302.5 -290.5t451 -100q131 0 265 43t216 120l20 -26 q-90 -76 -227 -121t-274 -45q-266 0 -469 103.5t-313.5 300t-110.5 466.5zM543 481q0 -141 52 -248.5t147.5 -166t222.5 -58.5q119 0 208 58.5t137 160t48 226.5v61q0 121 -48 219t-137.5 154.5t-207.5 56.5q-127 0 -222.5 -57.5t-147.5 -161.5t-52 -244z" />
<glyph unicode="A" d="M25 0l557 1352h36l558 -1352h-35l-199 479h-684l-199 -479h-34zM270 508h660l-295 713l-35 94l-35 -92z" />
<glyph unicode="B" horiz-adv-x="1247" d="M203 0v1352h475q205 0 309.5 -87t104.5 -255q0 -268 -271 -326v-2q147 -20 228 -106.5t81 -229.5q0 -170 -114.5 -258t-337.5 -88h-475zM236 29h442q207 0 313.5 80.5t106.5 238.5q0 160 -105.5 240t-314.5 80h-442v-639zM236 696h442q188 0 284.5 78t96.5 234 t-97.5 235.5t-283.5 79.5h-442v-627z" />
<glyph unicode="C" horiz-adv-x="1329" d="M115 676q0 211 74.5 368.5t210 242.5t315.5 85q424 0 524 -356l-31 -15q-51 172 -173 257t-320 85q-170 0 -298 -81.5t-199 -232t-71 -353.5t71 -353.5t200 -232.5t297 -82q193 0 324.5 89t179.5 253l30 -12q-51 -170 -190 -264t-344 -94q-178 0 -314.5 85t-211 242.5 t-74.5 368.5z" />
<glyph unicode="D" horiz-adv-x="1400" d="M203 0v1352h415q328 0 497 -166t169 -490q0 -342 -169 -519t-497 -177h-415zM236 29h382q312 0 472.5 169t160.5 498q0 309 -160.5 468t-472.5 159h-382v-1294z" />
<glyph unicode="E" horiz-adv-x="1193" d="M203 0v1352h895v-29h-862v-618h692v-29h-692v-647h897v-29h-930z" />
<glyph unicode="F" horiz-adv-x="1134" d="M203 0v1352h893v-29h-860v-618h692v-29h-692v-676h-33z" />
<glyph unicode="G" horiz-adv-x="1384" d="M115 676q0 211 74.5 368.5t210 242.5t315.5 85q424 0 524 -356l-29 -15q-51 172 -174 257t-321 85q-170 0 -298 -81.5t-199 -232t-71 -353.5t70 -353.5t196 -232.5t294 -82q188 0 302.5 80t161 192.5t46.5 219.5v108h-494v29h526v-637h-32v326q-41 -162 -172.5 -254 t-337.5 -92q-178 0 -312.5 85t-207 242.5t-72.5 368.5z" />
<glyph unicode="H" horiz-adv-x="1425" d="M203 0v1352h33v-647h954v647h33v-1352h-33v676h-954v-676h-33z" />
<glyph unicode="I" horiz-adv-x="438" d="M203 0v1352h33v-1352h-33z" />
<glyph unicode="J" horiz-adv-x="1019" d="M59 330q0 37 7 80l32 16q-6 -45 -6 -88q0 -160 89 -245t253 -85q178 0 271.5 111.5t93.5 308.5v924h32v-924q0 -209 -102 -328.5t-295 -119.5q-178 0 -276.5 94t-98.5 256z" />
<glyph unicode="K" horiz-adv-x="1140" d="M203 0v1352h33v-826l811 826h47l-531 -541l551 -811h-43l-532 786l-303 -307v-479h-33z" />
<glyph unicode="L" horiz-adv-x="1112" d="M203 0v1352h33v-1323h851v-29h-884z" />
<glyph unicode="M" horiz-adv-x="1609" d="M203 0v1352h43l534 -1254l25 -59l24 57l535 1256h43v-1352h-33v1188l2 117l-551 -1305h-41l-551 1305l3 -117v-1188h-33z" />
<glyph unicode="N" horiz-adv-x="1421" d="M203 0v1352h45l887 -1239l53 -80l-2 117v1202h33v-1352h-45l-887 1239l-54 80l3 -117v-1202h-33z" />
<glyph unicode="O" horiz-adv-x="1462" d="M115 676q0 213 74.5 369.5t214 241.5t327.5 85q189 0 328 -85t214 -241.5t75 -369.5t-75 -369.5t-214 -241.5t-328 -85q-188 0 -327.5 85t-214 241.5t-74.5 369.5zM147 676q0 -203 71 -353.5t203 -232.5t310 -82t310.5 82t203 232.5t70.5 353.5t-70.5 353.5t-203 232 t-310.5 81.5t-310 -81.5t-203 -232t-71 -353.5z" />
<glyph unicode="P" horiz-adv-x="1148" d="M203 0v1352h418q217 0 338.5 -100.5t121.5 -278.5t-121.5 -277.5t-338.5 -99.5h-385v-596h-33zM236 625h385q200 0 314 92t114 256t-114 257t-314 93h-385v-698z" />
<glyph unicode="Q" horiz-adv-x="1462" d="M115 676q0 213 74.5 369.5t214 241.5t327.5 85t327.5 -85t214.5 -241.5t75 -369.5q0 -207 -72 -362.5t-205 -241.5t-313 -92q10 -168 102 -259.5t238 -91.5q139 0 213 76l16 -27q-81 -77 -225 -77h-4q-156 0 -257.5 100t-111.5 279q-186 0 -325.5 85t-214 241.5 t-74.5 369.5zM147 676q0 -203 71 -353.5t203 -232.5t310 -82t310.5 82t203 232.5t70.5 353.5t-70.5 353.5t-203 232t-310.5 81.5t-310 -81.5t-203 -232t-71 -353.5z" />
<glyph unicode="R" horiz-adv-x="1251" d="M203 0v1352h489q199 0 313.5 -98.5t114.5 -270.5q0 -154 -92 -249t-256 -116l408 -618h-37l-410 616q-12 -2 -41 -2h-456v-614h-33zM236 643h456q186 0 290.5 90t104.5 250t-104 250t-291 90h-456v-680z" />
<glyph unicode="S" horiz-adv-x="1216" d="M86 340l31 16q27 -172 167 -260t349 -88q197 0 327 85t130 235q0 129 -101.5 202.5t-347.5 114.5q-197 33 -309.5 79t-160.5 113.5t-48 170.5q0 98 58.5 181t168 133t254.5 50q402 0 494 -313l-27 -21q-80 305 -467 305q-133 0 -235.5 -44t-157.5 -120.5t-55 -170.5 q0 -90 45 -150.5t151.5 -103.5t294.5 -76q174 -31 278.5 -75t150.5 -110.5t46 -164.5q0 -100 -62.5 -180t-173 -124t-253.5 -44q-221 0 -367.5 90t-179.5 270z" />
<glyph unicode="T" horiz-adv-x="1114" d="M23 1323v29h1069v-29h-519v-1323h-32v1323h-518z" />
<glyph unicode="U" horiz-adv-x="1392" d="M186 481v871h33v-871q0 -225 126 -349t351 -124t351.5 124t126.5 349v871h32v-871q0 -240 -134 -370.5t-376 -130.5t-376 131t-134 370z" />
<glyph unicode="V" horiz-adv-x="1179" d="M35 1352h35l465 -1174l55 -141l55 141l465 1174h35l-533 -1352h-45z" />
<glyph unicode="W" horiz-adv-x="1861" d="M47 1352h35l434 -1319l393 1319h43l394 -1319l434 1319h35l-447 -1352h-43l-393 1307h-2l-82 -279l-311 -1028h-43z" />
<glyph unicode="X" horiz-adv-x="1077" d="M25 0l493 700l-450 652h41l430 -623l440 623h45l-463 -656l481 -696h-41l-462 668l-471 -668h-43z" />
<glyph unicode="Y" horiz-adv-x="1048" d="M33 1352h39l452 -793l453 793h39l-475 -828v-524h-33v524z" />
<glyph unicode="Z" horiz-adv-x="1130" d="M59 0v29l945 1294h-930v29h966v-29l-944 -1294h985v-29h-1022z" />
<glyph unicode="[" horiz-adv-x="548" d="M156 -344v1839h370v-29h-340v-1781h340v-29h-370z" />
<glyph unicode="\" horiz-adv-x="714" d="M74 1495h35l534 -1638h-35z" />
<glyph unicode="]" horiz-adv-x="548" d="M23 -315h339v1781h-339v29h370v-1839h-370v29z" />
<glyph unicode="^" horiz-adv-x="1091" d="M76 727l450 768h39l451 -768h-39l-430 735l-432 -735h-39z" />
<glyph unicode="_" horiz-adv-x="1021" d="M0 -199h1022v-28h-1022v28z" />
<glyph unicode="`" horiz-adv-x="1126" d="M311 1495h37l174 -301h-30z" />
<glyph unicode="a" horiz-adv-x="1058" d="M94 221q0 121 88 190.5t289 106.5l363 68v127q0 143 -84 223t-242 80q-141 0 -231.5 -57.5t-135.5 -184.5l-26 21q47 127 143 188t250 61q174 0 266 -85t92 -246v-557q0 -74 30 -111t83 -37q53 1 78 19l-2 -29q-27 -18 -74 -18q-61 0 -104 40.5t-43 147.5v29 q-41 -104 -161 -160.5t-259 -56.5q-150 0 -235 63t-85 178zM127 221q0 -100 79 -156.5t218 -56.5q88 0 183 33t161 101.5t66 166.5v248l-340 -63q-197 -37 -282 -102.5t-85 -170.5z" />
<glyph unicode="b" horiz-adv-x="1198" d="M174 0v1495h33v-774q39 156 148.5 239.5t269.5 83.5q221 0 345 -141t124 -391t-124 -391t-345 -141q-162 0 -270.5 86t-147.5 241v-307h-33zM207 504q0 -229 111.5 -362.5t299.5 -133.5q209 0 326 133t117 371t-117 371t-326 133q-188 0 -299.5 -133t-111.5 -365v-14z " />
<glyph unicode="c" horiz-adv-x="1073" d="M104 512q0 250 125 391t346 141q154 0 260.5 -73.5t143.5 -206.5l-29 -14q-33 127 -131 196.5t-244 69.5q-207 0 -322.5 -134t-115.5 -370q0 -238 112.5 -371t319.5 -133q147 0 258 78t131 205l29 -10q-27 -135 -143.5 -218t-274.5 -83q-221 0 -343 141t-122 391z" />
<glyph unicode="d" horiz-adv-x="1198" d="M104 512q0 250 124 391t345 141q160 0 269.5 -83.5t148.5 -239.5v774h33v-1495h-33v307q-39 -156 -147.5 -241.5t-270.5 -85.5q-221 0 -345 141t-124 391zM137 512q0 -238 117 -371t326 -133q188 0 299.5 133t111.5 363v14q0 231 -111.5 364.5t-299.5 133.5 q-209 0 -326 -133t-117 -371z" />
<glyph unicode="e" horiz-adv-x="1093" d="M104 512q0 250 122 391t337 141q203 0 317.5 -143t114.5 -397v-15h-858q6 -227 121 -354t315 -127q129 0 232.5 61.5t155.5 168.5l26 -15q-53 -115 -163.5 -179t-250.5 -64q-221 0 -345 141t-124 391zM137 520h830q-4 233 -108.5 364.5t-295.5 131.5q-198 0 -311 -131 t-115 -365z" />
<glyph unicode="f" horiz-adv-x="655" d="M25 995v29h204v170q0 145 73 228t200 83q100 0 157 -63l-14 -25q-27 33 -60.5 46.5t-82.5 13.5q-113 0 -176.5 -75t-63.5 -208v-170h381v-29h-381v-995h-33v995h-204z" />
<glyph unicode="g" horiz-adv-x="1015" d="M70 -166q0 86 62.5 146.5t166.5 78.5q-78 20 -122 66.5t-44 107.5q0 78 59.5 130.5t153.5 66.5q-106 35 -164.5 111.5t-58.5 181.5q0 145 111.5 233t293.5 88q147 0 248 -59q6 104 67.5 165.5t162.5 61.5l10 -28q-96 0 -152.5 -57.5t-60.5 -157.5q61 -43 94 -105.5 t33 -140.5q0 -145 -109.5 -233.5t-292.5 -88.5q-57 0 -118 11q-106 -6 -175 -55.5t-69 -118.5q0 -72 65.5 -117t184.5 -45h252q155 0 247.5 -61.5t92.5 -164.5q0 -86 -58.5 -151.5t-165 -102t-243.5 -36.5q-217 0 -344 74.5t-127 199.5zM102 -162q0 -113 120 -181.5 t323 -68.5q121 0 219 33t154.5 91.5t56.5 133.5q0 90 -84 145.5t-225 55.5h-263q-133 0 -217 -58.5t-84 -150.5zM156 723q0 -133 102 -213t270 -80t268.5 80t100.5 213t-100.5 213t-268.5 80t-270 -80t-102 -213z" />
<glyph unicode="h" horiz-adv-x="1175" d="M174 0v1495h33v-741q37 129 152.5 211t273.5 82q178 0 279.5 -97.5t101.5 -273.5v-674h-33v670q0 164 -95 255t-259 91q-117 0 -213.5 -55.5t-151.5 -146.5t-55 -198v-618h-33z" />
<glyph unicode="i" horiz-adv-x="380" d="M145 1270q0 20 12.5 32.5t32.5 12.5t33 -12.5t13 -32.5t-12.5 -32.5t-33.5 -12.5q-20 0 -32.5 12t-12.5 33zM174 0v1024h33v-1024h-33z" />
<glyph unicode="j" horiz-adv-x="380" d="M-209 -395l10 28q25 -23 61 -34t75 -11q109 0 173 77t64 204v1155h33v-1155q0 -141 -74 -225t-196 -84q-43 0 -82 12t-64 33zM145 1270q0 20 12.5 32.5t32.5 12.5q21 0 33.5 -12.5t12.5 -32.5t-12.5 -32.5t-33.5 -12.5q-20 0 -32.5 12t-12.5 33z" />
<glyph unicode="k" horiz-adv-x="987" d="M174 0v1495h33v-1118l696 647h49l-450 -418l461 -606h-41l-445 584l-270 -252v-332h-33z" />
<glyph unicode="l" horiz-adv-x="485" d="M166 219v1276h33v-1276q0 -111 36.5 -161t112.5 -50q43 0 67.5 6t51.5 19v-29q-43 -24 -113 -24h-6q-92 0 -137 57t-45 182z" />
<glyph unicode="m" horiz-adv-x="1982" d="M174 0v1024h33v-272q37 129 152.5 210.5t273.5 81.5q160 0 259 -79.5t118 -225.5q31 135 148.5 222.5t281.5 87.5q178 0 279.5 -97.5t101.5 -273.5v-674h-33v670q0 164 -95.5 255t-258.5 91q-117 0 -213.5 -55.5t-151.5 -146.5t-55 -197v-621h-33v670q0 164 -95 255 t-259 91q-117 0 -213.5 -55.5t-151.5 -146.5t-55 -198v-616h-33z" />
<glyph unicode="n" horiz-adv-x="1175" d="M174 0v1024h33v-272q37 129 152.5 210.5t273.5 81.5q178 0 279.5 -97t101.5 -273v-674h-33v670q0 164 -95 255t-259 91q-117 0 -213.5 -55.5t-151.5 -146.5t-55 -198v-616h-33z" />
<glyph unicode="o" horiz-adv-x="1165" d="M104 512q0 248 128 390t352 142q223 0 350 -142t127 -390t-127 -390t-350 -142t-351.5 142t-128.5 390zM137 512q0 -236 120 -370t327 -134t325.5 134t118.5 370t-118.5 370t-325.5 134t-327 -134t-120 -370z" />
<glyph unicode="p" horiz-adv-x="1198" d="M174 -430v1454h33v-307q39 156 147.5 241.5t270.5 85.5q221 0 345 -141t124 -391t-124 -391t-345 -141q-160 0 -269.5 83.5t-148.5 239.5v-733h-33zM207 506q0 -231 111.5 -364.5t299.5 -133.5q209 0 326 133t117 371t-117 371t-326 133q-188 0 -299.5 -133t-111.5 -363 v-14z" />
<glyph unicode="q" d="M106 512q0 250 124 391t345 141q162 0 270.5 -86t147.5 -241v307h33v-1454h-33v733q-39 -156 -148.5 -239.5t-269.5 -83.5q-221 0 -345 141t-124 391zM139 512q0 -238 117 -371t326 -133q188 0 299.5 133t111.5 365v14q0 229 -111.5 362.5t-299.5 133.5q-209 0 -326 -133 t-117 -371z" />
<glyph unicode="r" horiz-adv-x="702" d="M174 0v1024h33v-266q35 125 125 205.5t211 80.5q96 0 145 -49l-18 -24q-23 23 -50.5 34t-80.5 11q-92 0 -168 -59.5t-120 -157t-44 -203.5v-596h-33z" />
<glyph unicode="s" horiz-adv-x="980" d="M76 227l30 15q27 -113 130.5 -173.5t261.5 -60.5q162 0 258 66.5t96 179.5q0 94 -77 149.5t-271 88.5q-211 37 -297 99t-86 175q0 78 49 141.5t135 100t195 36.5q324 0 379 -256l-29 -16q-51 244 -350 244q-98 0 -177 -32t-124 -87t-45 -123q0 -102 79.5 -160.5 t280.5 -93.5q205 -35 288 -96.5t83 -169.5q0 -127 -105.5 -200.5t-287.5 -73.5q-164 0 -276 63t-140 184z" />
<glyph unicode="t" horiz-adv-x="673" d="M23 995v29h204v266l33 10v-276h395v-29h-395v-737q0 -125 52.5 -187.5t160.5 -62.5q111 0 180 76l17 -27q-33 -35 -85.5 -56t-111.5 -21q-246 0 -246 278v737h-204z" />
<glyph unicode="u" horiz-adv-x="1155" d="M162 342v682h33v-678q0 -162 87 -250t244 -88q137 0 232.5 63.5t142.5 154.5t47 175v623h33v-1024h-33v272q-37 -129 -152.5 -210.5t-275.5 -81.5q-170 0 -264 94t-94 268z" />
<glyph unicode="v" horiz-adv-x="985" d="M45 1024h37l412 -983l409 983h37l-430 -1024h-35z" />
<glyph unicode="w" horiz-adv-x="1595" d="M59 1024h35l322 -977l364 977h35l365 -977l321 977h35l-340 -1024h-33l-364 977l-367 -977h-33z" />
<glyph unicode="x" horiz-adv-x="966" d="M39 0l418 532l-404 492h49l379 -461l361 461h45l-383 -487l442 -537h-49l-418 506l-395 -506h-45z" />
<glyph unicode="y" horiz-adv-x="985" d="M-8 -375l18 27q41 -63 144 -64q84 0 140 46.5t105 164.5l82 199l-436 1026h37l379 -901l37 -86l34 88l371 899h37l-510 -1231q-53 -131 -116.5 -182t-161.5 -51q-55 0 -97.5 16t-62.5 49z" />
<glyph unicode="z" horiz-adv-x="966" d="M63 995v29h816v-29l-639 -825l-117 -141h788v-29h-831v29l678 866l82 100h-777z" />
<glyph unicode="{" horiz-adv-x="530" d="M16 571v27q109 0 171.5 51t62.5 142v495q0 106 63.5 168t175.5 62v-29q-96 0 -151 -53.5t-55 -147.5v-495q0 -78 -42 -131.5t-118 -73.5q76 -23 118 -76t42 -131v-498q0 -94 55 -147t151 -53v-29q-113 0 -176 61.5t-63 167.5v498q0 90 -62.5 141t-171.5 51z" />
<glyph unicode="|" horiz-adv-x="342" d="M156 -344v1839h30v-1839h-30z" />
<glyph unicode="}" horiz-adv-x="530" d="M41 -319q96 0 151.5 53t55.5 147v498q0 78 42 131t118 76q-76 20 -118 73.5t-42 131.5v495q0 94 -55.5 147.5t-151.5 53.5v29q113 0 176.5 -61.5t63.5 -168.5v-495q0 -91 62.5 -142t170.5 -51v-27q-109 0 -171 -51t-62 -141v-498q0 -106 -63.5 -167.5t-176.5 -61.5v29z " />
<glyph unicode="~" horiz-adv-x="980" d="M88 604q27 193 195 193q63 0 110 -19.5t109 -58.5q61 -37 102 -55.5t94 -18.5q72 0 110 40t52 124h33q-27 -193 -195 -193q-63 0 -110 19.5t-109 58.5q-61 37 -102 55.5t-94 18.5q-72 0 -110 -40t-52 -124h-33z" />
<glyph unicode="&#xa1;" horiz-adv-x="356" d="M133 989q0 20 12.5 32.5t32.5 12.5t32.5 -12t12.5 -33q0 -20 -12 -32.5t-33 -12.5q-20 0 -32.5 12.5t-12.5 32.5zM162 -328v1004h33v-1004h-33z" />
<glyph unicode="&#xa2;" horiz-adv-x="1099" d="M115 512q0 240 115.5 381t322.5 151v185h29v-185h4q154 0 260 -73.5t143 -206.5l-28 -14q-33 127 -131.5 196.5t-243.5 69.5h-4v-1008q145 0 255.5 78t131.5 205l28 -10q-26 -138 -142 -219.5t-273 -81.5v-185h-29v185q-209 8 -323.5 149t-114.5 383zM147 512 q0 -229 105.5 -362.5t300.5 -141.5v1008q-193 -12 -299.5 -145.5t-106.5 -358.5z" />
<glyph unicode="&#xa3;" horiz-adv-x="1173" d="M63 115q0 63 56.5 102t152.5 39q84 0 143.5 -27.5t125.5 -81.5q51 74 51 168q0 80 -27.5 146.5t-99.5 159.5h-272v28h249q-84 109 -116.5 184.5t-32.5 165.5q0 168 108.5 270.5t284.5 102.5q150 0 245 -81t109 -216l-30 -12q-12 127 -101.5 203.5t-222.5 76.5 q-166 0 -263 -93t-97 -251q0 -82 32.5 -155.5t116.5 -184.5l8 -10h432v-28h-409q66 -90 92.5 -158t26.5 -144q0 -109 -62 -192q72 -59 130.5 -89t142.5 -30q115 0 174 58.5t61 169.5h29q0 -129 -71 -192.5t-193 -63.5q-92 0 -152.5 30.5t-138.5 93.5q-49 -59 -125 -91.5 t-162 -32.5q-88 0 -141.5 36.5t-53.5 98.5zM96 115q0 -49 44 -78t118 -29q82 0 150.5 31t113.5 84q-59 51 -115.5 77.5t-132.5 26.5q-82 0 -130 -30.5t-48 -81.5z" />
<glyph unicode="&#xa4;" horiz-adv-x="1232" d="M127 211l211 211q-84 102 -84 260q0 154 80 252l-207 207l25 24l204 -207q98 98 260 99q160 0 258 -99l209 207l23 -22l-209 -211q80 -98 80 -250q0 -158 -84 -260l213 -213l-23 -23l-213 213q-96 -96 -254 -96q-154 0 -254 94l-210 -211zM287 682q0 -162 89 -256 t240 -94q152 0 240 94t88 256q0 158 -89 252t-239 94q-152 0 -240.5 -94t-88.5 -252z" />
<glyph unicode="&#xa5;" horiz-adv-x="1163" d="M90 1352h39l422 -744l29 -49h4l28 49l422 744h39l-463 -799h412v-29h-424v-223h424v-29h-424v-272h-33v272h-422v29h422v223h-422v29h410z" />
<glyph unicode="&#xa6;" horiz-adv-x="370" d="M170 -344v750h31v-750h-31zM170 745v750h31v-750h-31z" />
<glyph unicode="&#xa7;" horiz-adv-x="1097" d="M100 602q0 96 74 160.5t193 91.5q-86 37 -125 93.5t-39 139.5q0 78 43 143.5t127 103.5t200 38q139 0 231.5 -43t127.5 -131l-27 -18q-55 164 -332 163q-158 0 -247.5 -70.5t-89.5 -182.5q0 -115 88 -176.5t307 -94.5q150 -23 236.5 -57.5t124.5 -86.5t38 -130 q0 -96 -74.5 -162t-195.5 -90q90 -37 129 -93.5t39 -140.5q0 -78 -43 -143.5t-127 -103t-201 -37.5q-139 0 -231.5 43t-126.5 131l26 18q55 -164 332 -164q158 0 248 71t90 183q0 115 -88 176.5t-307 94.5q-150 23 -237 57.5t-125 86.5t-38 130zM133 602q0 -68 35 -114 t116 -76.5t222 -53.5q131 -20 215 -51q117 23 196.5 82.5t79.5 155.5q0 102 -81.5 156.5t-290.5 86.5q-133 18 -219 50q-115 -23 -194 -82.5t-79 -153.5z" />
<glyph unicode="&#xa8;" horiz-adv-x="1126" d="M330 1270q0 20 12 32.5t33 12.5q20 0 32.5 -12.5t12.5 -32.5t-12.5 -32.5t-32.5 -12.5t-32.5 12t-12.5 33zM707 1270q0 20 12 32.5t33 12.5q20 0 32.5 -12.5t12.5 -32.5t-12.5 -32.5t-32.5 -12.5t-32.5 12t-12.5 33z" />
<glyph unicode="&#xa9;" horiz-adv-x="1630" d="M115 676q0 207 87 364.5t246.5 244.5t366.5 87t366.5 -87t247 -244.5t87.5 -364.5t-87.5 -364.5t-247 -244.5t-366.5 -87t-366.5 87t-246.5 244.5t-87 364.5zM147 676q0 -197 84 -348.5t235.5 -235.5t348.5 -84t348.5 84t235.5 235.5t84 348.5t-84 348.5t-235.5 235 t-348.5 83.5t-348.5 -83.5t-235.5 -235.5t-84 -348zM467 672q0 178 98.5 278.5t274.5 100.5q116 0 194 -52.5t111 -152.5l-29 -15q-57 190 -278 191q-158 0 -248 -93t-90 -257t90 -257t248 -93q109 0 186.5 57t99.5 151l31 -12q-27 -102 -114 -163.5t-201 -61.5 q-176 0 -274.5 100.5t-98.5 278.5z" />
<glyph unicode="&#xaa;" horiz-adv-x="720" d="M70 834q0 78 62.5 127t193.5 71l233 41v66q0 92 -55 143t-158 51q-94 0 -151.5 -35.5t-85.5 -111.5l-27 10q27 80 94.5 123t169.5 43q115 0 180.5 -56.5t65.5 -162.5v-359q0 -88 65 -88q36 1 54 13v-29q-20 -12 -56 -12q-96 0 -96 120v19q-27 -66 -104.5 -102.5 t-165.5 -36.5q-100 0 -159.5 44t-59.5 122zM78 457v28h608v-28h-608zM100 831q0 -63 50.5 -99t138.5 -36q59 0 121.5 22.5t105.5 66.5t43 106v153l-219 -38q-127 -23 -183.5 -66t-56.5 -109z" />
<glyph unicode="&#xab;" horiz-adv-x="776" d="M94 543l295 401h43l-297 -401l297 -402h-43zM336 543l295 401h43l-297 -401l297 -402h-43z" />
<glyph unicode="&#xac;" horiz-adv-x="1236" d="M158 633v29h921v-302h-32v273h-889z" />
<glyph unicode="&#xad;" horiz-adv-x="854" d="M139 537v32h576v-32h-576z" />
<glyph unicode="&#xae;" horiz-adv-x="1630" d="M115 676q0 207 87 364.5t246.5 244.5t366.5 87t366.5 -87t247 -244.5t87.5 -364.5t-87.5 -364.5t-247 -244.5t-366.5 -87t-366.5 87t-246.5 244.5t-87 364.5zM147 676q0 -197 84 -348.5t235.5 -235.5t348.5 -84t348.5 84t235.5 235.5t84 348.5t-84 348.5t-235.5 235 t-348.5 83.5t-348.5 -83.5t-235.5 -235.5t-84 -348zM565 293v758h318q244 0 243 -207q1 -189 -208 -205l221 -346h-37l-221 344h-283v-344h-33zM598 664h285q213 4 213 180q0 178 -213 178h-285v-358z" />
<glyph unicode="&#xaf;" horiz-adv-x="1126" d="M268 1239v29h590v-29h-590z" />
<glyph unicode="&#xb0;" horiz-adv-x="757" d="M104 1096q0 123 76 199.5t199 76.5t198.5 -76.5t75.5 -199.5t-75.5 -200t-198.5 -77t-199 77t-76 200zM137 1096q0 -111 65.5 -179.5t176.5 -68.5q110 0 176 68.5t66 179.5t-66 179t-176 68q-111 0 -176.5 -68.5t-65.5 -178.5z" />
<glyph unicode="&#xb1;" horiz-adv-x="1236" d="M158 0v29h921v-29h-921zM158 737v29h446v508h31v-508h444v-29h-444v-520h-31v520h-446z" />
<glyph unicode="&#xb2;" horiz-adv-x="673" d="M61 1253q10 113 80 182.5t185 69.5q117 0 184.5 -65.5t67.5 -177.5q0 -164 -250 -375l-207 -174v-2h53h436v-29h-534v31l233 198q109 92 172.5 178.5t63.5 174.5q0 96 -59.5 154.5t-159.5 58.5q-104 0 -166 -61.5t-68 -168.5z" />
<glyph unicode="&#xb3;" horiz-adv-x="626" d="M29 856l26 16q18 -82 78 -128t162 -46q98 0 158.5 52.5t60.5 144.5q0 86 -53 134t-156 48h-51v29h51q88 0 138.5 53t50.5 131q0 86 -53.5 136.5t-147.5 50.5q-84 0 -139.5 -40t-71.5 -110l-29 14q23 74 86.5 119t151.5 45q108 0 171.5 -60.5t63.5 -154.5 q0 -74 -37.5 -125t-111.5 -71v-4q78 -8 124 -62.5t46 -130.5q0 -104 -73 -165.5t-183 -61.5q-104 0 -171 49t-91 137z" />
<glyph unicode="&#xb4;" horiz-adv-x="1126" d="M604 1194l174 301h37l-180 -301h-31z" />
<glyph unicode="&#xb5;" horiz-adv-x="1122" d="M152 -430v1454h32v-678q0 -160 91.5 -249t240.5 -89q119 0 215 55.5t151.5 146.5t55.5 198v616h33v-1024h-33v272q-37 -129 -152.5 -210.5t-275.5 -81.5q-115 0 -201 55t-125 158v-623h-32z" />
<glyph unicode="&#xb6;" horiz-adv-x="1056" d="M61 936q0 123 58.5 217t165 146.5t245.5 52.5h361v-1557h-33v1528h-285v-1528h-32v725q-143 0 -252 52.5t-168.5 146.5t-59.5 217zM94 936q0 -115 55.5 -203t157 -136t234.5 -48v774q-133 0 -234.5 -48t-157 -136t-55.5 -203z" />
<glyph unicode="&#xb7;" horiz-adv-x="393" d="M152 737q0 20 12 32.5t33 12.5q20 0 32.5 -12t12.5 -33q0 -20 -12.5 -32.5t-32.5 -12.5t-32.5 12.5t-12.5 32.5z" />
<glyph unicode="&#xb8;" horiz-adv-x="1126" d="M406 -328l16 25q37 -47 79 -65.5t97 -18.5q66 0 108 40t42 103q0 68 -48.5 123t-181.5 127h43q121 -57 169 -114.5t48 -133.5t-50 -124t-130 -48q-66 0 -112 19.5t-80 66.5z" />
<glyph unicode="&#xb9;" horiz-adv-x="397" d="M23 1296v27q61 20 130.5 68.5t98.5 103.5h27v-813h-33v635q0 43 4 133q-66 -90 -227 -154z" />
<glyph unicode="&#xba;" horiz-adv-x="724" d="M78 1016q0 180 68.5 263t215.5 83t216 -83t69 -263t-68.5 -263t-216.5 -83q-147 0 -215.5 83t-68.5 263zM90 457v28h545v-28h-545zM111 1016q0 -164 60 -241t191 -77q132 0 192 77t60 241t-60 240.5t-192 76.5q-131 0 -191 -76.5t-60 -240.5z" />
<glyph unicode="&#xbb;" horiz-adv-x="768" d="M94 141l297 402l-297 401h43l295 -401l-295 -402h-43zM336 141l297 402l-297 401h43l295 -401l-295 -402h-43z" />
<glyph unicode="&#xbc;" horiz-adv-x="1300" d="M23 1163v27q61 20 130.5 68.5t98.5 103.5h27v-813h-33v635q0 43 4 133q-66 -90 -227 -154zM108 0l953 1352h38l-952 -1352h-39zM658 238v28l393 539h45v-539h166v-28h-166v-246h-33v246h-405zM693 266h370v420v86h-2l-65 -92z" />
<glyph unicode="&#xbd;" horiz-adv-x="1484" d="M23 1163v27q61 20 130.5 68.5t98.5 103.5h27v-813h-33v635q0 43 4 133q-66 -90 -227 -154zM108 0l953 1352h38l-952 -1352h-39zM872 563q10 113 80 182.5t185 69.5q117 0 184.5 -65.5t67.5 -178.5q0 -164 -250 -374l-207 -174v-3h53h436v-28h-534v31l233 198 q109 92 172.5 178t63.5 174q0 96 -59.5 154.5t-159.5 58.5q-104 0 -166 -61t-68 -168z" />
<glyph unicode="&#xbe;" horiz-adv-x="1529" d="M29 723l26 16q18 -82 78 -128t162 -46q98 0 158.5 52.5t60.5 144.5q0 86 -53 134t-156 48h-51v29h51q88 0 138.5 53t50.5 131q0 86 -53.5 136t-147.5 50q-84 0 -139.5 -39.5t-71.5 -109.5l-29 14q23 74 86.5 119t151.5 45q108 0 171.5 -60.5t63.5 -154.5 q0 -74 -37.5 -125t-111.5 -71v-5q78 -8 124 -62t46 -130q0 -104 -73 -165.5t-183 -61.5q-104 0 -171 49t-91 137zM338 0l953 1352h38l-952 -1352h-39zM887 238v28l393 539h45v-539h166v-28h-166v-246h-33v246h-405zM922 266h370v420v86h-2l-65 -92z" />
<glyph unicode="&#xbf;" horiz-adv-x="960" d="M80 -12q0 174 96 281.5t309 168.5v269h33v-287q-154 -47 -242 -104.5t-125.5 -136.5t-37.5 -191q0 -147 99 -232.5t257 -85.5q188 0 285.5 84t119.5 246l29 -12q-27 -170 -131 -258t-303 -88q-174 0 -281.5 93t-107.5 253zM457 979q0 20 12 32.5t33 12.5q20 0 32.5 -12.5 t12.5 -32.5t-12.5 -32.5t-32.5 -12.5q-21 0 -33 12t-12 33z" />
<glyph unicode="&#xc0;" d="M25 0l557 1352h36l558 -1352h-35l-199 479h-684l-199 -479h-34zM270 508h660l-295 713l-35 94l-35 -92zM406 1825h36l154 -303h-31z" />
<glyph unicode="&#xc1;" d="M25 0l557 1352h36l558 -1352h-35l-199 479h-684l-199 -479h-34zM270 508h660l-295 713l-35 94l-35 -92zM598 1522l154 303h36l-159 -303h-31z" />
<glyph unicode="&#xc2;" d="M25 0l557 1352h36l558 -1352h-35l-199 479h-684l-199 -479h-34zM270 508h660l-295 713l-35 94l-35 -92zM356 1522l224 290h41l223 -290h-35l-209 264l-209 -264h-35z" />
<glyph unicode="&#xc3;" d="M25 0l557 1352h36l558 -1352h-35l-199 479h-684l-199 -479h-34zM270 508h660l-295 713l-35 94l-35 -92zM279 1553q16 90 57 131t117 41q55 0 88.5 -18.5t72.5 -55.5q33 -33 63 -50.5t75 -17.5q66 0 96.5 34t46.5 110h31q-17 -90 -58 -131t-116 -41q-55 0 -89 18.5 t-73 54.5q-37 35 -65.5 51.5t-73.5 16.5q-66 0 -95.5 -34t-46.5 -109h-30z" />
<glyph unicode="&#xc4;" d="M25 0l557 1352h36l558 -1352h-35l-199 479h-684l-199 -479h-34zM270 508h660l-295 713l-35 94l-35 -92zM365 1598q0 20 12 32.5t33 12.5q20 0 32.5 -12.5t12.5 -32.5t-12.5 -32.5t-32.5 -12.5t-32.5 12t-12.5 33zM742 1598q0 20 12 32.5t33 12.5q20 0 32.5 -12.5 t12.5 -32.5t-12.5 -32.5t-32.5 -12.5t-32.5 12t-12.5 33z" />
<glyph unicode="&#xc5;" d="M25 0l546 1325q-53 10 -85.5 47t-32.5 94q0 63 41 103.5t106 40.5q66 0 107 -40t41 -104q0 -57 -33 -94t-86 -47l547 -1325h-35l-199 479h-684l-199 -479h-34zM270 508h660l-295 713l-35 94l-35 -92zM485 1466q0 -51 32 -82.5t83 -31.5q53 0 84 31.5t31 82.5q0 53 -31 84 t-84 31q-51 0 -83 -30.5t-32 -84.5z" />
<glyph unicode="&#xc6;" horiz-adv-x="1812" d="M-16 0l860 1352h874v-29h-788v-623h631v-28h-631v-643h821v-29h-854v520h-541l-325 -520h-47zM375 549h522v774h-37z" />
<glyph unicode="&#xc7;" horiz-adv-x="1329" d="M115 676q0 211 74.5 368.5t210 242.5t315.5 85q424 0 524 -356l-31 -15q-51 172 -173 257t-320 85q-170 0 -298 -81.5t-199 -232t-71 -353.5t71 -353.5t200 -232.5t297 -82q193 0 324.5 89t179.5 253l30 -12q-49 -168 -186 -262t-336 -96q92 -51 129 -102.5t37 -119.5 q0 -76 -50 -124t-130 -48q-66 0 -112 19.5t-81 66.5l17 25q37 -47 78.5 -65.5t97.5 -18.5q66 0 107.5 40t41.5 103q0 61 -39 112.5t-143 111.5q-170 8 -298 96t-197.5 241.5t-69.5 358.5z" />
<glyph unicode="&#xc8;" horiz-adv-x="1193" d="M203 0v1352h895v-29h-862v-618h692v-29h-692v-647h897v-29h-930zM496 1825h36l154 -303h-31z" />
<glyph unicode="&#xc9;" horiz-adv-x="1193" d="M203 0v1352h895v-29h-862v-618h692v-29h-692v-647h897v-29h-930zM627 1522l153 303h37l-160 -303h-30z" />
<glyph unicode="&#xca;" horiz-adv-x="1193" d="M203 0v1352h895v-29h-862v-618h692v-29h-692v-647h897v-29h-930zM406 1522l223 290h41l223 -290h-35l-209 264l-209 -264h-34z" />
<glyph unicode="&#xcb;" horiz-adv-x="1193" d="M203 0v1352h895v-29h-862v-618h692v-29h-692v-647h897v-29h-930zM414 1598q0 20 12 32.5t33 12.5q20 0 32.5 -12.5t12.5 -32.5t-12.5 -32.5t-32.5 -12.5t-32.5 12t-12.5 33zM791 1598q0 20 12 32.5t33 12.5q20 0 32.5 -12.5t12.5 -32.5t-12.5 -32.5t-32.5 -12.5t-32.5 12 t-12.5 33z" />
<glyph unicode="&#xcc;" horiz-adv-x="438" d="M25 1825h36l154 -303h-31zM203 0v1352h33v-1352h-33z" />
<glyph unicode="&#xcd;" horiz-adv-x="438" d="M203 0v1352h33v-1352h-33zM217 1522l154 303h37l-160 -303h-31z" />
<glyph unicode="&#xce;" horiz-adv-x="438" d="M-25 1522l224 290h41l223 -290h-35l-209 264l-209 -264h-35zM203 0v1352h33v-1352h-33z" />
<glyph unicode="&#xcf;" horiz-adv-x="438" d="M53 1597q0 20 12.5 32.5t32.5 12.5q21 0 33 -12t12 -33q0 -20 -12 -32.5t-33 -12.5q-20 0 -32.5 12.5t-12.5 32.5zM203 0v1352h33v-1352h-33zM295 1597q0 20 12 32.5t33 12.5q20 0 32.5 -12t12.5 -33q0 -20 -12.5 -32.5t-32.5 -12.5t-32.5 12.5t-12.5 32.5z" />
<glyph unicode="&#xd0;" horiz-adv-x="1415" d="M10 670v28h209v654h416q328 0 496.5 -166t168.5 -490q0 -342 -168.5 -519t-496.5 -177h-416v670h-209zM252 29h383q311 0 472 169t161 498q0 309 -161 468t-472 159h-383v-625h424v-28h-424v-641z" />
<glyph unicode="&#xd1;" horiz-adv-x="1421" d="M203 0v1352h45l887 -1239l53 -80l-2 117v1202h33v-1352h-45l-887 1239l-54 80l3 -117v-1202h-33zM402 1553q16 90 57 131t117 41q55 0 88.5 -18.5t72.5 -55.5q33 -33 63 -50.5t75 -17.5q66 0 96.5 34t46.5 110h31q-17 -90 -58 -131t-116 -41q-55 0 -89 18.5t-73 54.5 q-37 35 -65.5 51.5t-73.5 16.5q-66 0 -95.5 -34t-46.5 -109h-30z" />
<glyph unicode="&#xd2;" horiz-adv-x="1462" d="M115 676q0 213 74.5 369.5t214 241.5t327.5 85q189 0 328 -85t214 -241.5t75 -369.5t-75 -369.5t-214 -241.5t-328 -85q-188 0 -327.5 85t-214 241.5t-74.5 369.5zM147 676q0 -203 71 -353.5t203 -232.5t310 -82t310.5 82t203 232.5t70.5 353.5t-70.5 353.5t-203 232 t-310.5 81.5t-310 -81.5t-203 -232t-71 -353.5zM537 1825h36l154 -303h-31z" />
<glyph unicode="&#xd3;" horiz-adv-x="1462" d="M115 676q0 213 74.5 369.5t214 241.5t327.5 85q189 0 328 -85t214 -241.5t75 -369.5t-75 -369.5t-214 -241.5t-328 -85q-188 0 -327.5 85t-214 241.5t-74.5 369.5zM147 676q0 -203 71 -353.5t203 -232.5t310 -82t310.5 82t203 232.5t70.5 353.5t-70.5 353.5t-203 232 t-310.5 81.5t-310 -81.5t-203 -232t-71 -353.5zM729 1522l154 303h37l-160 -303h-31z" />
<glyph unicode="&#xd4;" horiz-adv-x="1462" d="M115 676q0 213 74.5 369.5t214 241.5t327.5 85q189 0 328 -85t214 -241.5t75 -369.5t-75 -369.5t-214 -241.5t-328 -85q-188 0 -327.5 85t-214 241.5t-74.5 369.5zM147 676q0 -203 71 -353.5t203 -232.5t310 -82t310.5 82t203 232.5t70.5 353.5t-70.5 353.5t-203 232 t-310.5 81.5t-310 -81.5t-203 -232t-71 -353.5zM487 1522l224 290h41l223 -290h-35l-209 264l-209 -264h-35z" />
<glyph unicode="&#xd5;" horiz-adv-x="1462" d="M115 676q0 213 74.5 369.5t214 241.5t327.5 85q189 0 328 -85t214 -241.5t75 -369.5t-75 -369.5t-214 -241.5t-328 -85q-188 0 -327.5 85t-214 241.5t-74.5 369.5zM147 676q0 -203 71 -353.5t203 -232.5t310 -82t310.5 82t203 232.5t70.5 353.5t-70.5 353.5t-203 232 t-310.5 81.5t-310 -81.5t-203 -232t-71 -353.5zM410 1553q16 90 57 131t117 41q55 0 88.5 -18.5t72.5 -55.5q33 -33 63 -50.5t75 -17.5q66 0 96.5 34t46.5 110h31q-17 -90 -58 -131t-116 -41q-55 0 -89 18.5t-73 54.5q-37 35 -65.5 51.5t-73.5 16.5q-66 0 -95.5 -34 t-46.5 -109h-30z" />
<glyph unicode="&#xd6;" horiz-adv-x="1462" d="M115 676q0 213 74.5 369.5t214 241.5t327.5 85q189 0 328 -85t214 -241.5t75 -369.5t-75 -369.5t-214 -241.5t-328 -85q-188 0 -327.5 85t-214 241.5t-74.5 369.5zM147 676q0 -203 71 -353.5t203 -232.5t310 -82t310.5 82t203 232.5t70.5 353.5t-70.5 353.5t-203 232 t-310.5 81.5t-310 -81.5t-203 -232t-71 -353.5zM496 1598q0 20 12 32.5t33 12.5q20 0 32.5 -12.5t12.5 -32.5t-12.5 -32.5t-32.5 -12.5t-32.5 12t-12.5 33zM873 1598q0 20 12 32.5t33 12.5q20 0 32.5 -12.5t12.5 -32.5t-12.5 -32.5t-32.5 -12.5t-32.5 12t-12.5 33z" />
<glyph unicode="&#xd7;" horiz-adv-x="1236" d="M254 301l338 338l-338 338l27 27l337 -338l338 338l27 -27l-338 -338l338 -338l-27 -27l-338 338l-337 -338z" />
<glyph unicode="&#xd8;" horiz-adv-x="1462" d="M115 676q0 213 74.5 369.5t214 241.5t327.5 85q233 0 391 -129l123 170h41l-139 -192q98 -93 149.5 -231t51.5 -314q0 -213 -75 -369.5t-214 -241.5t-328 -85q-236 0 -391 131l-123 -172h-41l141 192q-98 92 -150 230.5t-52 314.5zM147 676q0 -168 48.5 -300t140.5 -220 l768 1061q-152 127 -373 126q-178 0 -310 -81.5t-203 -232t-71 -353.5zM358 135q150 -127 373 -127q178 0 310.5 82t203 232.5t70.5 353.5q0 168 -48 300t-141 220z" />
<glyph unicode="&#xd9;" horiz-adv-x="1392" d="M186 481v871h33v-871q0 -225 126 -349t351 -124t351.5 124t126.5 349v871h32v-871q0 -240 -134 -370.5t-376 -130.5t-376 131t-134 370zM543 1825h37l153 -303h-31z" />
<glyph unicode="&#xda;" horiz-adv-x="1392" d="M186 481v871h33v-871q0 -225 126 -349t351 -124t351.5 124t126.5 349v871h32v-871q0 -240 -134 -370.5t-376 -130.5t-376 131t-134 370zM694 1522l154 303h37l-160 -303h-31z" />
<glyph unicode="&#xdb;" horiz-adv-x="1392" d="M186 481v871h33v-871q0 -225 126 -349t351 -124t351.5 124t126.5 349v871h32v-871q0 -240 -134 -370.5t-376 -130.5t-376 131t-134 370zM453 1522l223 290h41l223 -290h-35l-209 264l-209 -264h-34z" />
<glyph unicode="&#xdc;" horiz-adv-x="1392" d="M186 481v871h33v-871q0 -225 126 -349t351 -124t351.5 124t126.5 349v871h32v-871q0 -240 -134 -370.5t-376 -130.5t-376 131t-134 370zM461 1598q0 20 12 32.5t33 12.5q20 0 32.5 -12.5t12.5 -32.5t-12.5 -32.5t-32.5 -12.5t-32.5 12t-12.5 33zM838 1598q0 20 12 32.5 t33 12.5q20 0 32.5 -12.5t12.5 -32.5t-12.5 -32.5t-32.5 -12.5t-32.5 12t-12.5 33z" />
<glyph unicode="&#xdd;" horiz-adv-x="1048" d="M33 1352h39l452 -793l453 793h39l-475 -828v-524h-33v524zM522 1522l154 303h37l-160 -303h-31z" />
<glyph unicode="&#xde;" horiz-adv-x="1161" d="M203 0v1352h33v-277h366q236 0 356.5 -95t120.5 -284q0 -188 -120.5 -283.5t-356.5 -95.5h-366v-317h-33zM236 346h385q210 0 318 88t108 262t-108 262.5t-318 88.5h-385v-701z" />
<glyph unicode="&#xdf;" horiz-adv-x="1136" d="M174 0v1057q0 221 108.5 334.5t317.5 113.5q176 0 276.5 -94t100.5 -262q0 -109 -42 -192t-113.5 -131t-159.5 -52v-2q178 -8 276 -113.5t98 -285.5q0 -178 -104.5 -285.5t-276.5 -107.5q-68 0 -124 23.5t-91 66.5l19 20q39 -45 86 -64.5t110 -19.5q158 0 253.5 100.5 t95.5 266.5q0 190 -110 287.5t-296 97.5h-90v28h90q154 0 250 97.5t96 269.5q0 152 -92 238t-252 86q-195 0 -295 -113t-100 -330v-1034h-31z" />
<glyph unicode="&#xe0;" horiz-adv-x="1058" d="M94 221q0 121 88 190.5t289 106.5l363 68v127q0 143 -84 223t-242 80q-141 0 -231.5 -57.5t-135.5 -184.5l-26 21q47 127 143 188t250 61q174 0 266 -85t92 -246v-557q0 -74 30 -111t83 -37q53 1 78 19l-2 -29q-27 -18 -74 -18q-61 0 -104 40.5t-43 147.5v29 q-41 -104 -161 -160.5t-259 -56.5q-150 0 -235 63t-85 178zM127 221q0 -100 79 -156.5t218 -56.5q88 0 183 33t161 101.5t66 166.5v248l-340 -63q-197 -37 -282 -102.5t-85 -170.5zM307 1495h37l174 -301h-30z" />
<glyph unicode="&#xe1;" horiz-adv-x="1058" d="M94 221q0 121 88 190.5t289 106.5l363 68v127q0 143 -84 223t-242 80q-141 0 -231.5 -57.5t-135.5 -184.5l-26 21q47 127 143 188t250 61q174 0 266 -85t92 -246v-557q0 -74 30 -111t83 -37q53 1 78 19l-2 -29q-27 -18 -74 -18q-61 0 -104 40.5t-43 147.5v29 q-41 -104 -161 -160.5t-259 -56.5q-150 0 -235 63t-85 178zM127 221q0 -100 79 -156.5t218 -56.5q88 0 183 33t161 101.5t66 166.5v248l-340 -63q-197 -37 -282 -102.5t-85 -170.5zM481 1194l174 301h37l-180 -301h-31z" />
<glyph unicode="&#xe2;" horiz-adv-x="1058" d="M94 221q0 121 88 190.5t289 106.5l363 68v127q0 143 -84 223t-242 80q-141 0 -231.5 -57.5t-135.5 -184.5l-26 21q47 127 143 188t250 61q174 0 266 -85t92 -246v-557q0 -74 30 -111t83 -37q53 1 78 19l-2 -29q-27 -18 -74 -18q-61 0 -104 40.5t-43 147.5v29 q-41 -104 -161 -160.5t-259 -56.5q-150 0 -235 63t-85 178zM127 221q0 -100 79 -156.5t218 -56.5q88 0 183 33t161 101.5t66 166.5v248l-340 -63q-197 -37 -282 -102.5t-85 -170.5zM256 1194l221 291h37l221 -291h-35l-205 264l-205 -264h-34z" />
<glyph unicode="&#xe3;" horiz-adv-x="1058" d="M94 221q0 121 88 190.5t289 106.5l363 68v127q0 143 -84 223t-242 80q-141 0 -231.5 -57.5t-135.5 -184.5l-26 21q47 127 143 188t250 61q174 0 266 -85t92 -246v-557q0 -74 30 -111t83 -37q53 1 78 19l-2 -29q-27 -18 -74 -18q-61 0 -104 40.5t-43 147.5v29 q-41 -104 -161 -160.5t-259 -56.5q-150 0 -235 63t-85 178zM127 221q0 -100 79 -156.5t218 -56.5q88 0 183 33t161 101.5t66 166.5v248l-340 -63q-197 -37 -282 -102.5t-85 -170.5zM175 1225q16 90 57 131t117 41q55 0 88.5 -18.5t72.5 -55.5q33 -33 63 -50.5t75 -17.5 q66 0 96.5 34t46.5 110h31q-17 -90 -58 -131t-116 -41q-55 0 -89 18.5t-73 54.5q-37 35 -65.5 51.5t-73.5 16.5q-66 0 -95.5 -34t-46.5 -109h-30z" />
<glyph unicode="&#xe4;" horiz-adv-x="1058" d="M94 221q0 121 88 190.5t289 106.5l363 68v127q0 143 -84 223t-242 80q-141 0 -231.5 -57.5t-135.5 -184.5l-26 21q47 127 143 188t250 61q174 0 266 -85t92 -246v-557q0 -74 30 -111t83 -37q53 1 78 19l-2 -29q-27 -18 -74 -18q-61 0 -104 40.5t-43 147.5v29 q-41 -104 -161 -160.5t-259 -56.5q-150 0 -235 63t-85 178zM127 221q0 -100 79 -156.5t218 -56.5q88 0 183 33t161 101.5t66 166.5v248l-340 -63q-197 -37 -282 -102.5t-85 -170.5zM260 1270q0 20 12 32.5t33 12.5q20 0 32.5 -12.5t12.5 -32.5t-12.5 -32.5t-32.5 -12.5 t-32.5 12t-12.5 33zM637 1270q0 20 12 32.5t33 12.5q20 0 32.5 -12.5t12.5 -32.5t-12.5 -32.5t-32.5 -12.5t-32.5 12t-12.5 33z" />
<glyph unicode="&#xe5;" horiz-adv-x="1058" d="M94 221q0 121 88 190.5t289 106.5l363 68v127q0 143 -84 223t-242 80q-141 0 -231.5 -57.5t-135.5 -184.5l-26 21q47 127 143 188t250 61q174 0 266 -85t92 -246v-557q0 -74 30 -111t83 -37q53 1 78 19l-2 -29q-27 -18 -74 -18q-61 0 -104 40.5t-43 147.5v29 q-41 -104 -161 -160.5t-259 -56.5q-150 0 -235 63t-85 178zM127 221q0 -100 79 -156.5t218 -56.5q88 0 183 33t161 101.5t66 166.5v248l-340 -63q-197 -37 -282 -102.5t-85 -170.5zM323 1341q0 70 48 117t120 47t120 -47t48 -117t-48 -116.5t-120 -46.5t-120 47t-48 116z M356 1341q0 -57 39 -96t96 -39t96 39t39 96t-39 96.5t-96 39.5t-96 -39t-39 -97z" />
<glyph unicode="&#xe6;" horiz-adv-x="1773" d="M94 221q0 260 377 297l363 37v152q0 147 -84 228t-242 81q-139 0 -229.5 -58.5t-137.5 -183.5l-26 21q47 127 143 188t250 61q166 0 258 -77.5t100 -223.5q45 145 146.5 223t247.5 78q205 0 310 -125.5t105 -377.5v-15h-809v-75q14 -209 119 -326t277 -117q274 0 368 230 l27 -15q-102 -244 -395 -243q-156 0 -262.5 90t-145.5 254q-16 -178 -145 -261t-295 -83q-145 0 -232.5 62t-87.5 179zM127 221q0 -104 83 -158.5t214 -54.5q92 0 186.5 36t159 120t64.5 221v139l-340 -30q-193 -18 -280 -90t-87 -183zM866 557h781q-4 231 -100.5 345 t-286.5 114q-170 0 -274.5 -117t-119.5 -326v-16z" />
<glyph unicode="&#xe7;" horiz-adv-x="1073" d="M104 512q0 250 125 391t346 141q154 0 260.5 -73.5t143.5 -206.5l-29 -14q-33 127 -131 196.5t-244 69.5q-207 0 -322.5 -134t-115.5 -370q0 -238 112.5 -371t319.5 -133q147 0 258 78t131 205l29 -10q-26 -136 -143 -218.5t-275 -82.5h-2q92 -51 129 -102.5t37 -119.5 q0 -76 -50 -124t-130 -48q-66 0 -112 19.5t-81 66.5l17 25q37 -47 79 -65.5t97 -18.5q66 0 107.5 40t41.5 103q0 61 -38.5 112.5t-145.5 113.5q-199 16 -306.5 155t-107.5 375z" />
<glyph unicode="&#xe8;" horiz-adv-x="1093" d="M104 512q0 250 122 391t337 141q203 0 317.5 -143t114.5 -397v-15h-858q6 -227 121 -354t315 -127q129 0 232.5 61.5t155.5 168.5l26 -15q-53 -115 -163.5 -179t-250.5 -64q-221 0 -345 141t-124 391zM137 520h830q-4 233 -108.5 364.5t-295.5 131.5q-198 0 -311 -131 t-115 -365zM366 1495h37l174 -301h-30z" />
<glyph unicode="&#xe9;" horiz-adv-x="1093" d="M104 512q0 250 122 391t337 141q203 0 317.5 -143t114.5 -397v-15h-858q6 -227 121 -354t315 -127q129 0 232.5 61.5t155.5 168.5l26 -15q-53 -115 -163.5 -179t-250.5 -64q-221 0 -345 141t-124 391zM137 520h830q-4 233 -108.5 364.5t-295.5 131.5q-198 0 -311 -131 t-115 -365zM541 1194l174 301h37l-180 -301h-31z" />
<glyph unicode="&#xea;" horiz-adv-x="1093" d="M104 512q0 250 122 391t337 141q203 0 317.5 -143t114.5 -397v-15h-858q6 -227 121 -354t315 -127q129 0 232.5 61.5t155.5 168.5l26 -15q-53 -115 -163.5 -179t-250.5 -64q-221 0 -345 141t-124 391zM137 520h830q-4 233 -108.5 364.5t-295.5 131.5q-198 0 -311 -131 t-115 -365zM316 1194l221 291h37l221 -291h-35l-205 264l-205 -264h-34z" />
<glyph unicode="&#xeb;" horiz-adv-x="1093" d="M104 512q0 250 122 391t337 141q203 0 317.5 -143t114.5 -397v-15h-858q6 -227 121 -354t315 -127q129 0 232.5 61.5t155.5 168.5l26 -15q-53 -115 -163.5 -179t-250.5 -64q-221 0 -345 141t-124 391zM137 520h830q-4 233 -108.5 364.5t-295.5 131.5q-198 0 -311 -131 t-115 -365zM320 1270q0 20 12 32.5t33 12.5q20 0 32.5 -12.5t12.5 -32.5t-12.5 -32.5t-32.5 -12.5t-32.5 12t-12.5 33zM697 1270q0 20 12 32.5t33 12.5q20 0 32.5 -12.5t12.5 -32.5t-12.5 -32.5t-32.5 -12.5t-32.5 12t-12.5 33z" />
<glyph unicode="&#xec;" horiz-adv-x="380" d="M2 1495h37l174 -301h-30zM174 0v1024h33v-1024h-33z" />
<glyph unicode="&#xed;" horiz-adv-x="380" d="M174 0v1024h33v-1024h-33zM176 1194l174 301h37l-180 -301h-31z" />
<glyph unicode="&#xee;" horiz-adv-x="380" d="M-49 1194l221 291h37l221 -291h-35l-205 264l-205 -264h-34zM174 0v1024h33v-1024h-33z" />
<glyph unicode="&#xef;" horiz-adv-x="380" d="M43 1270q0 20 12.5 32.5t32.5 12.5t32.5 -12.5t12.5 -32.5t-12 -32.5t-33 -12.5q-20 0 -32.5 12t-12.5 33zM174 0v1024h33v-1024h-33zM248 1270q0 20 12 32.5t33 12.5q20 0 32.5 -12.5t12.5 -32.5t-12.5 -32.5t-32.5 -12.5q-21 0 -33 12t-12 33z" />
<glyph unicode="&#xf0;" horiz-adv-x="1181" d="M104 485q0 154 58.5 268.5t164 177t244.5 62.5q174 0 290 -82t155 -227q-20 340 -195 565l-354 -73l-8 26l342 72q-123 147 -312 221h64q172 -78 285 -213l239 51l8 -26l-229 -50q190 -248 191 -677q0 -297 -121 -448.5t-338 -151.5q-147 0 -257 62t-168.5 177t-58.5 266 zM137 485q0 -219 121 -348t330 -129q198 0 311 135.5t121 382.5v31q-8 109 -61.5 202t-151.5 149.5t-236 56.5q-129 0 -227 -59.5t-152.5 -168t-54.5 -252.5z" />
<glyph unicode="&#xf1;" horiz-adv-x="1175" d="M174 0v1024h33v-272q37 129 152.5 210.5t273.5 81.5q178 0 279.5 -97t101.5 -273v-674h-33v670q0 164 -95 255t-259 91q-117 0 -213.5 -55.5t-151.5 -146.5t-55 -198v-616h-33zM279 1225q16 90 57 131t117 41q55 0 88.5 -18.5t72.5 -55.5q33 -33 63 -50.5t75 -17.5 q66 0 96.5 34t46.5 110h31q-17 -90 -58 -131t-116 -41q-55 0 -89 18.5t-73 54.5q-37 35 -65.5 51.5t-73.5 16.5q-66 0 -95.5 -34t-46.5 -109h-30z" />
<glyph unicode="&#xf2;" horiz-adv-x="1165" d="M104 512q0 248 128 390t352 142q223 0 350 -142t127 -390t-127 -390t-350 -142t-351.5 142t-128.5 390zM137 512q0 -236 120 -370t327 -134t325.5 134t118.5 370t-118.5 370t-325.5 134t-327 -134t-120 -370zM395 1495h37l174 -301h-30z" />
<glyph unicode="&#xf3;" horiz-adv-x="1165" d="M104 512q0 248 128 390t352 142q223 0 350 -142t127 -390t-127 -390t-350 -142t-351.5 142t-128.5 390zM137 512q0 -236 120 -370t327 -134t325.5 134t118.5 370t-118.5 370t-325.5 134t-327 -134t-120 -370zM569 1194l174 301h37l-180 -301h-31z" />
<glyph unicode="&#xf4;" horiz-adv-x="1165" d="M104 512q0 248 128 390t352 142q223 0 350 -142t127 -390t-127 -390t-350 -142t-351.5 142t-128.5 390zM137 512q0 -236 120 -370t327 -134t325.5 134t118.5 370t-118.5 370t-325.5 134t-327 -134t-120 -370zM344 1194l221 291h37l221 -291h-35l-205 264l-205 -264h-34z " />
<glyph unicode="&#xf5;" horiz-adv-x="1165" d="M104 512q0 248 128 390t352 142q223 0 350 -142t127 -390t-127 -390t-350 -142t-351.5 142t-128.5 390zM137 512q0 -236 120 -370t327 -134t325.5 134t118.5 370t-118.5 370t-325.5 134t-327 -134t-120 -370zM263 1225q16 90 57 131t117 41q55 0 88.5 -18.5t72.5 -55.5 q33 -33 63 -50.5t75 -17.5q66 0 96.5 34t46.5 110h31q-17 -90 -58 -131t-116 -41q-55 0 -89 18.5t-73 54.5q-37 35 -65.5 51.5t-73.5 16.5q-66 0 -95.5 -34t-46.5 -109h-30z" />
<glyph unicode="&#xf6;" horiz-adv-x="1165" d="M104 512q0 248 128 390t352 142q223 0 350 -142t127 -390t-127 -390t-350 -142t-351.5 142t-128.5 390zM137 512q0 -236 120 -370t327 -134t325.5 134t118.5 370t-118.5 370t-325.5 134t-327 -134t-120 -370zM348 1270q0 20 12 32.5t33 12.5q20 0 32.5 -12.5t12.5 -32.5 t-12.5 -32.5t-32.5 -12.5t-32.5 12t-12.5 33zM725 1270q0 20 12 32.5t33 12.5q20 0 32.5 -12.5t12.5 -32.5t-12.5 -32.5t-32.5 -12.5t-32.5 12t-12.5 33z" />
<glyph unicode="&#xf7;" horiz-adv-x="1236" d="M158 633v29h921v-29h-921zM573 270q0 20 12.5 32.5t32.5 12.5q21 0 33.5 -12t12.5 -33q0 -20 -12.5 -32.5t-33.5 -12.5q-20 0 -32.5 12.5t-12.5 32.5zM573 1028q0 20 12.5 32.5t32.5 12.5q21 0 33.5 -12t12.5 -33q0 -20 -12.5 -32.5t-33.5 -12.5q-20 0 -32.5 12.5 t-12.5 32.5z" />
<glyph unicode="&#xf8;" horiz-adv-x="1167" d="M104 512q0 248 128 390t352 142q194 1 317 -110l119 151h43l-137 -174q135 -141 135 -399q0 -248 -127 -390t-350 -142q-190 0 -314 104l-114 -145h-43l133 167q-68 70 -105 173.5t-37 232.5zM137 512q0 -246 129 -379h2l51 68l564 708q-117 106 -299 107 q-207 0 -327 -134t-120 -370zM291 109q113 -100 293 -101q207 0 325.5 134t118.5 370q0 240 -123 375h-2l-37 -49z" />
<glyph unicode="&#xf9;" horiz-adv-x="1155" d="M162 342v682h33v-678q0 -162 87 -250t244 -88q137 0 232.5 63.5t142.5 154.5t47 175v623h33v-1024h-33v272q-37 -129 -152.5 -210.5t-275.5 -81.5q-170 0 -264 94t-94 268zM385 1495h37l174 -301h-30z" />
<glyph unicode="&#xfa;" horiz-adv-x="1155" d="M162 342v682h33v-678q0 -162 87 -250t244 -88q137 0 232.5 63.5t142.5 154.5t47 175v623h33v-1024h-33v272q-37 -129 -152.5 -210.5t-275.5 -81.5q-170 0 -264 94t-94 268zM559 1194l174 301h37l-180 -301h-31z" />
<glyph unicode="&#xfb;" horiz-adv-x="1155" d="M162 342v682h33v-678q0 -162 87 -250t244 -88q137 0 232.5 63.5t142.5 154.5t47 175v623h33v-1024h-33v272q-37 -129 -152.5 -210.5t-275.5 -81.5q-170 0 -264 94t-94 268zM334 1194l221 291h37l221 -291h-35l-205 264l-205 -264h-34z" />
<glyph unicode="&#xfc;" horiz-adv-x="1155" d="M162 342v682h33v-678q0 -162 87 -250t244 -88q137 0 232.5 63.5t142.5 154.5t47 175v623h33v-1024h-33v272q-37 -129 -152.5 -210.5t-275.5 -81.5q-170 0 -264 94t-94 268zM338 1270q0 20 12 32.5t33 12.5q20 0 32.5 -12.5t12.5 -32.5t-12.5 -32.5t-32.5 -12.5t-32.5 12 t-12.5 33zM715 1270q0 20 12 32.5t33 12.5q20 0 32.5 -12.5t12.5 -32.5t-12.5 -32.5t-32.5 -12.5t-32.5 12t-12.5 33z" />
<glyph unicode="&#xfd;" horiz-adv-x="985" d="M-8 -375l18 27q41 -63 144 -64q84 0 140 46.5t105 164.5l82 199l-436 1026h37l379 -901l37 -86l34 88l371 899h37l-510 -1231q-53 -131 -116.5 -182t-161.5 -51q-55 0 -97.5 16t-62.5 49zM485 1194l174 301h37l-180 -301h-31z" />
<glyph unicode="&#xfe;" horiz-adv-x="1198" d="M174 -430v1925h33v-774q39 156 148.5 239.5t269.5 83.5q221 0 345 -141t124 -391t-124 -391t-345 -141q-162 0 -270.5 86t-147.5 241v-737h-33zM207 504q0 -229 111.5 -362.5t299.5 -133.5q209 0 326 133t117 371t-117 371t-326 133q-188 0 -299.5 -133t-111.5 -365v-14z " />
<glyph unicode="&#xff;" horiz-adv-x="985" d="M-8 -375l18 27q41 -63 144 -64q84 0 140 46.5t105 164.5l82 199l-436 1026h37l379 -901l37 -86l34 88l371 899h37l-510 -1231q-53 -131 -116.5 -182t-161.5 -51q-55 0 -97.5 16t-62.5 49zM264 1270q0 20 12 32.5t33 12.5q20 0 32.5 -12.5t12.5 -32.5t-12.5 -32.5 t-32.5 -12.5t-32.5 12t-12.5 33zM641 1270q0 20 12 32.5t33 12.5q20 0 32.5 -12.5t12.5 -32.5t-12.5 -32.5t-32.5 -12.5t-32.5 12t-12.5 33z" />
<glyph unicode="&#x152;" horiz-adv-x="2150" d="M115 676q0 211 70.5 368.5t201.5 242.5t303 85q219 0 347 -100.5t175 -302.5v383h842v-29h-809v-618h662v-29h-662v-647h844v-29h-877v383q-47 -203 -175 -303t-347 -100q-172 0 -303 85t-201.5 242.5t-70.5 368.5zM147 676q0 -203 68 -353.5t190.5 -232.5t284.5 -82 q275 0 398.5 163t123.5 505t-123.5 504.5t-398.5 162.5q-162 0 -284.5 -81.5t-190.5 -232t-68 -353.5z" />
<glyph unicode="&#x153;" horiz-adv-x="2019" d="M104 512q0 248 128 390t352 142q184 0 304 -97t156 -275q37 178 153 275t292 97q203 0 317.5 -143t114.5 -397v-15h-858q6 -227 120.5 -354t315.5 -127q129 0 232.5 61.5t154.5 168.5l27 -15q-53 -115 -164 -179t-250 -64q-182 0 -300 97t-155 275q-37 -178 -156.5 -275 t-303.5 -97q-223 0 -351.5 142t-128.5 390zM137 512q0 -236 120 -370t327 -134t325.5 134t118.5 370t-118.5 370t-325.5 134t-327 -134t-120 -370zM1063 520h829q-4 233 -108.5 364.5t-294.5 131.5q-199 0 -311.5 -131t-114.5 -365z" />
<glyph unicode="&#x178;" horiz-adv-x="1048" d="M33 1352h39l452 -793l453 793h39l-475 -828v-524h-33v524zM289 1598q0 20 12 32.5t33 12.5q20 0 32.5 -12.5t12.5 -32.5t-12.5 -32.5t-32.5 -12.5t-32.5 12t-12.5 33zM666 1598q0 20 12 32.5t33 12.5q20 0 32.5 -12.5t12.5 -32.5t-12.5 -32.5t-32.5 -12.5t-32.5 12 t-12.5 33z" />
<glyph unicode="&#x2c6;" horiz-adv-x="1126" d="M324 1194l221 291h37l221 -291h-35l-205 264l-205 -264h-34z" />
<glyph unicode="&#x2dc;" horiz-adv-x="1126" d="M193 1225q16 90 57 131t117 41q55 0 88.5 -18.5t72.5 -55.5q33 -33 63 -50.5t75 -17.5q66 0 96.5 34t46.5 110h31q-17 -90 -58 -131t-116 -41q-55 0 -89 18.5t-73 54.5q-37 35 -65.5 51.5t-73.5 16.5q-66 0 -95.5 -34t-46.5 -109h-30z" />
<glyph unicode="&#x2000;" horiz-adv-x="912" />
<glyph unicode="&#x2001;" horiz-adv-x="1825" />
<glyph unicode="&#x2002;" horiz-adv-x="912" />
<glyph unicode="&#x2003;" horiz-adv-x="1825" />
<glyph unicode="&#x2004;" horiz-adv-x="608" />
<glyph unicode="&#x2005;" horiz-adv-x="456" />
<glyph unicode="&#x2006;" horiz-adv-x="304" />
<glyph unicode="&#x2007;" horiz-adv-x="304" />
<glyph unicode="&#x2008;" horiz-adv-x="228" />
<glyph unicode="&#x2009;" horiz-adv-x="365" />
<glyph unicode="&#x200a;" horiz-adv-x="101" />
<glyph unicode="&#x2010;" horiz-adv-x="854" d="M139 537v32h576v-32h-576z" />
<glyph unicode="&#x2011;" horiz-adv-x="854" d="M139 537v32h576v-32h-576z" />
<glyph unicode="&#x2012;" horiz-adv-x="854" d="M139 537v32h576v-32h-576z" />
<glyph unicode="&#x2013;" horiz-adv-x="1247" d="M139 537v32h969v-32h-969z" />
<glyph unicode="&#x2014;" horiz-adv-x="1923" d="M139 537v32h1645v-32h-1645z" />
<glyph unicode="&#x2018;" horiz-adv-x="354" d="M111 1206q0 61 31.5 118.5t88.5 88.5l25 -18q-51 -20 -86 -72.5t-35 -103.5q0 -14 8 -39h4q10 25 35 24q18 0 30.5 -13t12.5 -32q0 -18 -13 -31.5t-34 -13.5q-33 0 -50 25.5t-17 66.5z" />
<glyph unicode="&#x2019;" horiz-adv-x="352" d="M109 1128q51 20 85.5 72.5t34.5 104.5q0 14 -8 38h-4q-10 -25 -35 -24q-18 0 -30.5 13.5t-12.5 31.5t13.5 31.5t33.5 13.5q33 0 50.5 -25.5t17.5 -66.5q0 -61 -32 -118.5t-89 -88.5z" />
<glyph unicode="&#x201a;" horiz-adv-x="358" d="M96 -201q51 20 86 72.5t35 103.5q0 14 -8 39h-4q-10 -25 -35 -24q-18 0 -30.5 13t-12.5 32q0 18 13.5 31.5t33.5 13.5q33 0 50.5 -25.5t17.5 -66.5q0 -61 -32 -118.5t-89 -88.5z" />
<glyph unicode="&#x201c;" horiz-adv-x="555" d="M111 1206q0 61 31.5 118.5t88.5 88.5l25 -18q-51 -20 -86 -72.5t-35 -103.5q0 -14 8 -39h4q10 25 35 24q18 0 30.5 -13t12.5 -32q0 -18 -13 -31.5t-34 -13.5q-33 0 -50 25.5t-17 66.5zM312 1206q0 61 31.5 118.5t88.5 88.5l25 -18q-51 -20 -86 -72.5t-35 -103.5 q0 -14 8 -39h4q10 25 35 24q18 0 30.5 -13t12.5 -32q0 -18 -13 -31.5t-34 -13.5q-33 0 -50 25.5t-17 66.5z" />
<glyph unicode="&#x201d;" horiz-adv-x="552" d="M109 1128q51 20 85.5 72.5t34.5 104.5q0 14 -8 38h-4q-10 -25 -35 -24q-18 0 -30.5 13.5t-12.5 31.5t13.5 31.5t33.5 13.5q33 0 50.5 -25.5t17.5 -66.5q0 -61 -32 -118.5t-89 -88.5zM310 1128q51 20 85.5 72.5t34.5 104.5q0 14 -8 38h-4q-10 -25 -35 -24 q-18 0 -30.5 13.5t-12.5 31.5t13.5 31.5t33.5 13.5q33 0 50.5 -25.5t17.5 -66.5q0 -61 -32 -118.5t-89 -88.5z" />
<glyph unicode="&#x201e;" horiz-adv-x="559" d="M96 -201q51 20 86 72.5t35 103.5q0 14 -8 39h-4q-10 -25 -35 -24q-18 0 -30.5 13t-12.5 32q0 18 13.5 31.5t33.5 13.5q33 0 50.5 -25.5t17.5 -66.5q0 -61 -32 -118.5t-89 -88.5zM297 -201q51 20 86 72.5t35 103.5q0 14 -8 39h-4q-10 -25 -35 -24q-18 0 -30.5 13t-12.5 32 q0 18 13.5 31.5t33.5 13.5q33 0 50.5 -25.5t17.5 -66.5q0 -61 -32 -118.5t-89 -88.5z" />
<glyph unicode="&#x2022;" horiz-adv-x="880" d="M317 694q0 53 35 88t88 35q54 0 88.5 -34.5t34.5 -88.5q0 -53 -34.5 -88t-88.5 -35q-53 0 -88 35t-35 88z" />
<glyph unicode="&#x2026;" horiz-adv-x="1089" d="M139 35q0 20 12.5 32.5t32.5 12.5q21 0 33 -12.5t12 -32.5t-12 -32.5t-33 -12.5q-20 0 -32.5 12t-12.5 33zM500 35q0 20 12.5 32.5t32.5 12.5q21 0 33 -12.5t12 -32.5t-12 -32.5t-33 -12.5q-20 0 -32.5 12t-12.5 33zM860 35q0 20 12.5 32.5t32.5 12.5q21 0 33 -12.5 t12 -32.5t-12 -32.5t-33 -12.5q-20 0 -32.5 12t-12.5 33z" />
<glyph unicode="&#x202f;" horiz-adv-x="365" />
<glyph unicode="&#x2039;" horiz-adv-x="534" d="M94 543l295 401h43l-297 -401l297 -402h-43z" />
<glyph unicode="&#x203a;" horiz-adv-x="534" d="M102 141l297 402l-297 401h43l295 -401l-295 -402h-43z" />
<glyph unicode="&#x205f;" horiz-adv-x="456" />
<glyph unicode="&#x20ac;" horiz-adv-x="1327" d="M72 508v31h184q-8 57 -8 137t8 139h-184v31h186q35 252 171 389t351 137q160 0 269.5 -73.5t156.5 -217.5l-24 -20q-96 283 -402 282q-201 0 -326.5 -130t-160.5 -367h598l-21 -31h-581q-8 -59 -8 -139t8 -137h520l-21 -31h-495q33 -238 161 -369t328 -131q145 0 258 91 t154 261l29 -14q-45 -176 -167 -271t-274 -95q-215 0 -352 138t-172 390h-186z" />
<glyph unicode="&#x2122;" horiz-adv-x="1546" d="M63 1323v29h555v-29h-260v-647h-32v647h-263zM741 676v676h35l275 -623l12 -29l10 29l277 623h32v-676h-32v551l6 69h-2l-17 -49l-258 -571h-35l-256 571l-16 49h-2l4 -69v-551h-33z" />
<glyph unicode="&#x25fc;" horiz-adv-x="1024" d="M0 0v1024h1024v-1024h-1024z" />
</font>
</defs>
</svg>
