<?xml version="1.0" standalone="no"?>
<!DOCTYPE svg PUBLIC "-//W3C//DTD SVG 1.1//EN" "http://www.w3.org/Graphics/SVG/1.1/DTD/svg11.dtd" >
<svg xmlns="http://www.w3.org/2000/svg" xmlns:xlink="http://www.w3.org/1999/xlink" version="1.1">
<metadata></metadata>
<defs>
<font id="work_sansregular" horiz-adv-x="1236" >
<font-face units-per-em="2048" ascent="1638" descent="-410" />
<missing-glyph horiz-adv-x="698" />
<glyph unicode="&#xfb01;" horiz-adv-x="1349" d="M66 883v141h204v172q0 141 86 225t250 84q55 0 101.5 -12t72.5 -35l-43 -133q-49 31 -116 31q-186 0 -187 -176v-156h342v-141h-342v-883h-164v883h-204zM955 1343q0 55 33.5 89t88.5 34t89 -33.5t34 -89.5q0 -55 -33.5 -88.5t-89.5 -33.5q-55 0 -88.5 33.5t-33.5 88.5z M995 0v1024h164v-1024h-164z" />
<glyph unicode="&#xfb02;" horiz-adv-x="1431" d="M66 883v141h204v172q0 141 86 225t250 84q55 0 101.5 -12t72.5 -35l-43 -133q-49 31 -116 31q-186 0 -187 -176v-156h342v-141h-342v-883h-164v883h-204zM987 254v1241h164v-1221q0 -78 23.5 -107.5t87.5 -29.5q43 0 74.5 6.5t74.5 22.5l-26 -158q-68 -29 -152 -28 q-125 0 -185.5 67.5t-60.5 206.5z" />
<glyph horiz-adv-x="0" />
<glyph horiz-adv-x="682" />
<glyph unicode=" "  horiz-adv-x="698" />
<glyph unicode="&#x09;" horiz-adv-x="698" />
<glyph unicode="&#xa0;" horiz-adv-x="698" />
<glyph unicode="!" horiz-adv-x="557" d="M145 113q0 59 37 96t97 37q59 0 96 -37t37 -96t-37 -96t-96 -37t-96.5 36.5t-37.5 96.5zM193 766v586h172v-586l-25 -340h-123z" />
<glyph unicode="&#x22;" horiz-adv-x="825" d="M168 907v506h180l-53 -506h-127zM514 907v506h180l-53 -506h-127z" />
<glyph unicode="#" horiz-adv-x="1310" d="M41 383v125h274l60 346h-244v125h264l62 373h139l-61 -373h339l62 373h139l-61 -373h254v-125h-275l-59 -346h244v-125h-265l-63 -383h-139l63 383h-340l-63 -383h-140l64 383h-254zM455 508h340l59 346h-340z" />
<glyph unicode="$" horiz-adv-x="1259" d="M96 350l152 78q23 -111 113 -187.5t210 -99.5v475q-133 29 -220 63t-144 101.5t-57 180.5q0 102 51 186t146 138t224 65v206h142v-208q152 -12 251 -81t171 -202l-134 -104q-51 119 -116.5 176t-171.5 71v-481q133 -29 220 -62.5t145.5 -103t58.5 -186.5 q0 -158 -115 -257.5t-309 -115.5v-207h-142v207q-178 16 -299.5 104.5t-175.5 243.5zM305 973q0 -92 68.5 -139.5t197.5 -77.5v454q-131 -12 -198.5 -73.5t-67.5 -163.5zM713 137q270 22 270 225q0 94 -70.5 143.5t-199.5 80.5v-449z" />
<glyph unicode="%" horiz-adv-x="1753" d="M82 999q0 170 88 271.5t238 101.5q149 0 237 -101.5t88 -271.5t-88 -271t-237 -101q-150 0 -238 101t-88 271zM227 999q0 -117 47.5 -180t133.5 -63t133 63.5t47 179.5q0 117 -47 180.5t-133 63.5t-133.5 -63.5t-47.5 -180.5zM369 0l860 1352h155l-860 -1352h-155z M1020 352q0 170 88 271.5t238 101.5q149 0 237 -101.5t88 -271.5t-88 -271t-237 -101q-150 0 -238 101t-88 271zM1165 352q0 -117 47.5 -180t133.5 -63t133 63.5t47 179.5q0 117 -47 180.5t-133 63.5t-133.5 -63.5t-47.5 -180.5z" />
<glyph unicode="&#x26;" horiz-adv-x="1275" d="M98 330q0 127 75 226t249 192q-88 115 -122 182t-34 143t37 144.5t108.5 111.5t172.5 43q133 0 224 -68.5t91 -209.5q0 -117 -54 -203t-212 -178q35 -47 135 -170l74 -92l90 -109q86 141 86 330q0 37 -2 55l131 -16l2 -49q0 -115 -33 -222.5t-94 -197.5q80 -84 134 -112 t128 -28l-41 -122q-82 0 -147.5 30.5t-161.5 126.5q-80 -76 -182.5 -116.5t-223.5 -40.5q-125 0 -223 45t-152.5 124.5t-54.5 180.5zM252 342q0 -98 80 -163.5t190 -65.5q92 0 174 30.5t148 89.5q-70 76 -187 222l-151 186q-150 -86 -202 -152.5t-52 -146.5zM420 1075 q0 -53 24.5 -103t108.5 -159q125 68 163 131.5t38 145.5q0 143 -172 143q-78 0 -120 -45t-42 -113z" />
<glyph unicode="'" horiz-adv-x="479" d="M168 907v506h180l-53 -506h-127z" />
<glyph unicode="(" horiz-adv-x="716" d="M125 575q0 289 110.5 532t327.5 431l94 -94q-201 -182 -282.5 -383t-81.5 -486t82 -485.5t282 -382.5l-94 -94q-217 188 -327.5 431t-110.5 531z" />
<glyph unicode=")" horiz-adv-x="716" d="M59 -293q201 182 283 383t82 485q0 285 -82 486t-283 383l95 94q217 -188 327.5 -431t110.5 -532t-110.5 -531.5t-327.5 -430.5z" />
<glyph unicode="*" horiz-adv-x="1171" d="M109 1100l38 125l238 -74l154 -72l-21 168v248h135v-248l-20 -168l153 72l238 74l39 -125l-234 -78l-167 -33l116 -125l144 -200l-107 -78l-147 198l-82 150l-82 -150l-148 -198l-106 78l143 200l117 125l-168 33z" />
<glyph unicode="+" d="M121 571v154h422v430h153v-430h420v-154h-420v-432h-153v432h-422z" />
<glyph unicode="," horiz-adv-x="544" d="M117 -219q80 27 133 84t67 125l-8 4q-18 -14 -57 -14q-43 0 -78 33.5t-35 95.5q0 55 39 96t94 41q72 0 113 -55.5t41 -143.5q0 -109 -55.5 -201t-167.5 -145z" />
<glyph unicode="-" horiz-adv-x="1044" d="M184 451v170h676v-170h-676z" />
<glyph unicode="." horiz-adv-x="544" d="M139 113q0 59 37 96t96 37q60 0 97 -37t37 -96t-37 -96t-97 -37q-59 0 -96 36.5t-37 96.5z" />
<glyph unicode="/" horiz-adv-x="897" d="M57 -143l627 1638h154l-627 -1638h-154z" />
<glyph unicode="0" horiz-adv-x="1273" d="M133 676q0 340 129 518t375 178t375 -178t129 -518t-129 -518t-375 -178t-375 178t-129 518zM303 676q0 -268 86 -408.5t248 -140.5t248 140.5t86 408.5t-86 408.5t-248 140.5t-248 -140.5t-86 -408.5z" />
<glyph unicode="1" horiz-adv-x="837" d="M76 1108q49 6 133 46t162 94.5t114 103.5h144v-1352h-164v991q0 43 4 158q-70 -68 -162 -118t-188 -73z" />
<glyph unicode="2" horiz-adv-x="1193" d="M109 971q27 182 148.5 291.5t322.5 109.5q135 0 238.5 -53t158.5 -149.5t55 -221.5q0 -131 -62.5 -252t-203.5 -254t-381 -292v-3q135 6 203 7h473v-154h-909v133q281 207 430 341t213.5 243.5t64.5 230.5t-77.5 196t-209.5 75q-137 0 -222 -90.5t-99 -243.5z" />
<glyph unicode="3" horiz-adv-x="1193" d="M106 303l152 80q41 -125 113.5 -187.5t214.5 -62.5q137 0 215 68.5t78 177.5q0 125 -75 175t-237 50h-53v154h53q281 0 281 229q0 115 -64.5 173.5t-185.5 58.5q-119 0 -189.5 -54.5t-97.5 -152.5l-153 71q49 133 166.5 211t271.5 78q133 0 228.5 -48t144.5 -128t49 -176 q0 -94 -35 -170t-93.5 -120t-125.5 -44v-4q129 0 207 -93t78 -227q0 -109 -58.5 -196.5t-167 -136.5t-250.5 -49q-338 0 -467 323z" />
<glyph unicode="4" horiz-adv-x="1251" d="M90 354v121l617 877h206v-856h240v-142h-240v-354h-163v354h-660zM264 496h486v505l8 218h-4q-51 -104 -136 -226z" />
<glyph unicode="5" horiz-adv-x="1191" d="M129 289l160 84q35 -119 103.5 -179.5t201.5 -60.5q139 0 219 76t80 209q0 143 -74 219t-213 76q-211 0 -301 -131h-145l82 770h759v-154h-620l-53 -426l-2 -18h2q109 113 309 112q192 0 309 -119.5t117 -316.5q0 -211 -123 -330.5t-340 -119.5q-182 0 -296 78.5 t-175 230.5z" />
<glyph unicode="6" horiz-adv-x="1265" d="M145 676q0 221 69 377.5t188.5 237.5t271.5 81q162 0 264 -67.5t166 -217.5l-152 -71q-66 203 -288 203q-106 0 -189.5 -76t-129.5 -207t-46 -291v-37h8q31 121 139.5 184.5t231.5 63.5q207 0 331 -119t124 -319q0 -201 -126 -319.5t-339 -118.5q-166 0 -284 89 t-178.5 245.5t-60.5 361.5zM371 420q0 -127 80.5 -205t214.5 -78q139 0 217 75t78 208q0 129 -78 203.5t-217 74.5q-131 0 -213 -77.5t-82 -200.5z" />
<glyph unicode="7" horiz-adv-x="1148" d="M82 1198v154h995v-154q-252 -264 -367.5 -557t-115.5 -641h-168q0 332 120 638t353 560h-817z" />
<glyph unicode="8" horiz-adv-x="1261" d="M139 365q0 123 66.5 213t187.5 133v2q-90 39 -141 118.5t-51 184.5q0 164 116.5 259t313.5 95q196 0 313 -95t117 -259q0 -104 -50 -183t-141 -120v-2q119 -45 185.5 -133.5t66.5 -212.5q0 -117 -60.5 -204t-172 -134t-258.5 -47t-258 47t-172.5 134t-61.5 204zM309 381 q0 -115 87 -181.5t235 -66.5q149 0 235 66.5t86 181.5q0 117 -87 183.5t-234 66.5q-145 0 -233.5 -67.5t-88.5 -182.5zM371 999q0 -98 71.5 -156.5t188.5 -58.5t188.5 58.5t71.5 156.5q0 102 -69.5 160t-190.5 58t-190.5 -57.5t-69.5 -160.5z" />
<glyph unicode="9" horiz-adv-x="1275" d="M141 285l162 86q37 -121 101.5 -179.5t203.5 -58.5q203 0 288 153.5t85 444.5v19h-8q-29 -135 -136.5 -194.5t-240.5 -59.5q-205 0 -329 118.5t-124 319.5t126 319.5t339 118.5q166 0 284 -88t178 -244.5t60 -363.5q0 -340 -133 -518t-387 -178q-182 0 -295.5 75.5 t-173.5 229.5zM315 932q0 -129 78 -204t217 -75q131 0 213 78t82 201q0 127 -81 204.5t-214 77.5q-139 0 -217 -74.5t-78 -207.5z" />
<glyph unicode=":" horiz-adv-x="606" d="M170 113q0 59 37 96t96 37q60 0 97 -37t37 -96t-37 -96t-97 -37q-59 0 -96 36.5t-37 96.5zM170 912q0 59 37 96t96 37q60 0 97 -37t37 -96t-37 -96t-97 -37q-59 0 -96 36.5t-37 96.5z" />
<glyph unicode=";" horiz-adv-x="606" d="M152 -219q80 27 133 84t67 125l-8 4q-18 -14 -57 -14q-43 0 -78 33.5t-35 95.5q0 55 39 96t94 41q72 0 113 -55.5t41 -143.5q0 -109 -55.5 -201t-167.5 -145zM182 911q0 59 37 96t96 37t96.5 -36.5t37.5 -96.5q0 -59 -37 -96t-97 -37q-59 0 -96 37t-37 96z" />
<glyph unicode="&#x3c;" d="M145 518v191l975 460v-170l-844 -385l844 -387v-170z" />
<glyph unicode="=" d="M131 340v154h975v-154h-975zM131 750v153h975v-153h-975z" />
<glyph unicode="&#x3e;" d="M117 57v170l844 387l-844 385v170l975 -460v-191z" />
<glyph unicode="?" horiz-adv-x="1110" d="M80 1024q35 160 162 254t317 94q199 0 324 -94t125 -254q0 -170 -106.5 -265t-278.5 -114v-219h-170v307q207 31 295 92.5t88 178.5q0 100 -74 157.5t-215 57.5q-135 0 -220 -75t-102 -204zM401 113q0 59 37 96t97 37q59 0 96 -37t37 -96t-37 -96t-96 -37t-96.5 36.5 t-37.5 96.5z" />
<glyph unicode="@" horiz-adv-x="2017" d="M135 457q0 262 111.5 465.5t316.5 316.5t475 113q277 0 465.5 -108.5t279.5 -293t91 -418.5q0 -166 -47 -288.5t-132 -188t-198 -65.5q-104 0 -161.5 54t-75.5 134q-55 -84 -148.5 -131t-214.5 -47q-96 0 -176 50t-127 144.5t-47 221.5q0 164 67.5 285.5t176 186 t229.5 64.5q238 0 307 -178l41 166h107l-80 -637q-2 -16 -2 -47q0 -152 129 -152q111 0 168 109t57 319q0 207 -80 364t-239.5 246t-389.5 89q-236 0 -408.5 -95.5t-265 -269.5t-92.5 -409q0 -223 93.5 -390t257 -256.5t368.5 -89.5q160 0 257.5 35t185.5 99l71 -95 q-111 -78 -222.5 -118.5t-291.5 -40.5q-256 0 -449.5 106.5t-300 301t-106.5 448.5zM694 424q0 -141 65.5 -221t186.5 -80q123 0 215 78t111 221l12 100q4 41 4 62q0 115 -60.5 181t-191.5 66q-157 0 -249.5 -108.5t-92.5 -298.5z" />
<glyph unicode="A" horiz-adv-x="1351" d="M53 0l527 1352h194l524 -1352h-174l-143 375h-612l-144 -375h-172zM428 528h494l-183 480l-63 188h-4l-60 -182z" />
<glyph unicode="B" horiz-adv-x="1337" d="M221 0v1352h481q233 0 347 -97.5t114 -275.5q0 -106 -60.5 -188t-166.5 -103v-2q119 -23 190.5 -108.5t71.5 -198.5q0 -174 -131 -276.5t-367 -102.5h-479zM385 154h354q143 0 215 58t72 167t-71.5 167t-215.5 58h-354v-450zM385 758h320q145 0 215.5 54t70.5 167 q0 219 -286 219h-320v-440z" />
<glyph unicode="C" horiz-adv-x="1404" d="M139 676q0 211 77 368.5t218 242.5t328 85q195 0 327 -80t197 -235l-162 -76q-45 119 -131 178.5t-219 59.5q-139 0 -243.5 -64.5t-162 -187.5t-57.5 -291q0 -254 122 -398.5t333 -144.5q137 0 237.5 69.5t143.5 205.5l164 -62q-64 -172 -209.5 -269t-335.5 -97 t-331.5 85t-218.5 241.5t-77 369.5z" />
<glyph unicode="D" horiz-adv-x="1476" d="M221 0v1352h436q320 0 500 -176.5t180 -499.5q0 -324 -180 -500t-500 -176h-436zM385 154h289q231 0 361 138t130 384t-130 384t-361 138h-289v-1044z" />
<glyph unicode="E" horiz-adv-x="1306" d="M221 0v1352h948v-154h-784v-436h610v-154h-610v-454h815v-154h-979z" />
<glyph unicode="F" horiz-adv-x="1249" d="M221 0v1352h946v-154h-782v-436h610v-154h-610v-608h-164z" />
<glyph unicode="G" horiz-adv-x="1482" d="M139 676q0 211 79 368.5t221.5 242.5t330.5 85q201 0 331 -75.5t210 -233.5l-150 -82q-45 115 -146.5 176.5t-244.5 61.5q-137 0 -240.5 -66t-161 -187.5t-57.5 -289.5q0 -258 119 -400.5t342 -142.5q176 0 287.5 90t111.5 258v47h-430v154h580v-682h-123l-6 182 q-59 -98 -166.5 -150t-259.5 -52q-190 0 -331.5 85t-218.5 241.5t-77 369.5z" />
<glyph unicode="H" horiz-adv-x="1503" d="M221 0v1352h164v-590h733v590h164v-1352h-164v608h-733v-608h-164z" />
<glyph unicode="I" horiz-adv-x="606" d="M221 0v1352h164v-1352h-164z" />
<glyph unicode="J" horiz-adv-x="1159" d="M86 338q0 59 10 108l152 31q-8 -70 -8 -98q0 -125 59 -185.5t188 -60.5q168 0 234.5 90t66.5 281v848h164v-889q0 -227 -121.5 -355t-336.5 -128q-195 0 -301.5 95t-106.5 263z" />
<glyph unicode="K" horiz-adv-x="1343" d="M221 0v1352h164v-697l680 697h215l-539 -551l545 -801h-196l-463 680l-242 -246v-434h-164z" />
<glyph unicode="L" horiz-adv-x="1224" d="M221 0v1352h164v-1198h774v-154h-938z" />
<glyph unicode="M" horiz-adv-x="1748" d="M221 0v1352h252l297 -822l102 -337h5l104 335l295 824h252v-1352h-156v850l19 356h-2l-445 -1206h-139l-445 1206h-2l19 -356v-850h-156z" />
<glyph unicode="N" horiz-adv-x="1503" d="M221 0v1352h203l563 -901l146 -271h2l-9 217v955h156v-1352h-203l-565 905l-143 266h-2l8 -217v-954h-156z" />
<glyph unicode="O" horiz-adv-x="1531" d="M139 676q0 213 77 369.5t218 241.5t332 85q190 0 331.5 -85t218.5 -241.5t77 -369.5t-77 -369.5t-218.5 -241.5t-331.5 -85t-331.5 85t-218.5 241.5t-77 369.5zM311 676q0 -254 122 -398.5t333 -144.5t333 144.5t122 398.5t-122 398.5t-333 144.5t-333 -144.5 t-122 -398.5z" />
<glyph unicode="P" horiz-adv-x="1249" d="M221 0v1352h477q205 0 330 -112t125 -300t-125 -300t-330 -112h-313v-528h-164zM385 682h289q157 0 232 64.5t75 193.5t-75 193.5t-232 64.5h-289v-516z" />
<glyph unicode="Q" horiz-adv-x="1531" d="M139 676q0 213 77 369.5t218 241.5t332 85q190 0 331.5 -85t218.5 -241.5t77 -369.5q0 -199 -68 -349.5t-192.5 -239.5t-294.5 -103q10 -127 78.5 -172t181.5 -45q76 0 139 20t102 55l54 -151q-47 -41 -133 -65.5t-166 -24.5q-168 0 -280 89t-124 294q-170 16 -294 104 t-190.5 238.5t-66.5 349.5zM311 676q0 -254 122 -398.5t333 -144.5t333 144.5t122 398.5t-122 398.5t-333 144.5t-333 -144.5t-122 -398.5z" />
<glyph unicode="R" horiz-adv-x="1361" d="M221 0v1352h512q207 0 332 -106.5t125 -289.5q0 -143 -80 -241.5t-219 -134.5l381 -580h-195l-368 561h-324v-561h-164zM385 715h346q287 0 287 241q0 242 -287 242h-346v-483z" />
<glyph unicode="S" horiz-adv-x="1312" d="M98 272l142 115q55 -121 162.5 -187.5t269.5 -66.5q160 0 254 58.5t94 164.5q0 90 -82 143.5t-291 90.5q-270 47 -382.5 135t-112.5 246q0 109 61 201t176 146t266 54q363 0 523 -287l-142 -114q-61 135 -146 191.5t-233 56.5q-156 0 -244.5 -64.5t-88.5 -165.5 q0 -66 34.5 -108.5t115.5 -74.5t224 -56q268 -45 380 -135.5t112 -249.5q0 -115 -64.5 -202t-183.5 -135t-274 -48q-205 0 -349.5 79.5t-220.5 212.5z" />
<glyph unicode="T" d="M66 1198v154h1105v-154h-471v-1198h-163v1198h-471z" />
<glyph unicode="U" horiz-adv-x="1474" d="M207 504v848h164v-807q0 -213 89 -312.5t277 -99.5t277.5 99.5t89.5 312.5v807h164v-848q0 -260 -136.5 -392t-394.5 -132t-394 133t-136 391z" />
<glyph unicode="V" horiz-adv-x="1327" d="M57 1352h176l345 -934l86 -268l86 266l344 936h176l-512 -1352h-187z" />
<glyph unicode="W" horiz-adv-x="1968" d="M74 1352h176l325 -1223l320 1223h186l320 -1227l328 1227h165l-397 -1352h-203l-239 877l-70 305h-2l-70 -305l-237 -877h-203z" />
<glyph unicode="X" horiz-adv-x="1230" d="M51 0l473 688l-432 664h195l344 -529l346 529h174l-436 -656l450 -696h-190l-367 559l-366 -559h-191z" />
<glyph unicode="Y" horiz-adv-x="1171" d="M20 1352h195l371 -656l370 656h195l-483 -824v-528h-164v528z" />
<glyph unicode="Z" horiz-adv-x="1290" d="M115 0v145l841 1053h-821v154h1016v-146l-842 -1052h869v-154h-1063z" />
<glyph unicode="[" horiz-adv-x="712" d="M178 -344v1839h467v-143h-313v-1553h313v-143h-467z" />
<glyph unicode="\" horiz-adv-x="897" d="M59 1495h154l627 -1638h-154z" />
<glyph unicode="]" horiz-adv-x="712" d="M68 -201h313v1553h-313v143h467v-1839h-467v143z" />
<glyph unicode="^" horiz-adv-x="1146" d="M55 727l441 768h155l441 -768h-166l-353 629l-352 -629h-166z" />
<glyph unicode="_" horiz-adv-x="1103" d="M0 -199h1104v-153h-1104v153z" />
<glyph unicode="`" horiz-adv-x="1024" d="M264 1536h178l156 -342h-133z" />
<glyph unicode="a" horiz-adv-x="1159" d="M117 254q0 117 102.5 202t296.5 117l272 45v58q0 102 -63 163.5t-176 61.5q-102 0 -177 -49t-116 -145l-121 88q41 115 152.5 182t261.5 67q182 0 292.5 -88t110.5 -260v-503q0 -37 18.5 -55.5t59.5 -18.5t82 10l-10 -129q-57 -20 -123 -20q-80 0 -126 34.5t-58 116.5 q-47 -72 -138.5 -111.5t-191.5 -39.5q-152 0 -250 70.5t-98 203.5zM287 254q0 -63 49 -97t137 -34q129 0 222 61.5t93 159.5v141l-229 -43q-137 -25 -204.5 -70.5t-67.5 -117.5z" />
<glyph unicode="b" horiz-adv-x="1290" d="M190 0v1495h164v-631q49 82 138.5 131t201.5 49q215 0 341 -142t126 -390t-126 -390t-341 -142q-119 0 -212 54t-138 144l-10 -178h-144zM354 500q0 -172 87 -274.5t235 -102.5q149 0 235 105.5t86 283.5t-86 283.5t-235 105.5q-147 0 -234.5 -102.5t-87.5 -274.5v-24z " />
<glyph unicode="c" horiz-adv-x="1155" d="M127 512q0 250 132 391t364 141q153 0 258.5 -70.5t165.5 -201.5l-156 -74q-66 203 -273 203q-154 0 -240.5 -103.5t-86.5 -285.5t87 -285.5t240 -103.5q119 0 192 54t95 157l152 -53q-53 -143 -164 -222t-270 -79q-231 0 -363.5 141t-132.5 391z" />
<glyph unicode="d" horiz-adv-x="1290" d="M129 512q0 248 126 390t341 142q113 0 202 -49t138 -131v631h164v-1495h-144l-10 178q-45 -90 -138 -144t-212 -54q-215 0 -341 142t-126 390zM293 512q0 -178 86 -283.5t235 -105.5q148 0 235 102.5t87 274.5v24q0 172 -87 274.5t-235 102.5q-150 0 -235.5 -105.5 t-85.5 -283.5z" />
<glyph unicode="e" horiz-adv-x="1189" d="M127 512q0 250 126 391t357 141q143 0 248 -63t158 -172t53 -244q0 -57 -8 -114h-772q14 -156 103 -242t231 -86q113 0 187.5 39t100.5 112l138 -71q-61 -109 -164 -166t-262 -57q-231 0 -363.5 141t-132.5 391zM291 596h620q-16 143 -94 224t-207 81q-135 0 -218 -80 t-101 -225z" />
<glyph unicode="f" horiz-adv-x="804" d="M66 883v141h204v172q0 141 86 225t250 84q55 0 101.5 -12t72.5 -35l-43 -133q-49 31 -116 31q-186 0 -187 -176v-156h342v-141h-342v-883h-164v883h-204z" />
<glyph unicode="g" horiz-adv-x="1124" d="M94 -170q0 70 48 123t132 76q-63 31 -101 78t-38 110q0 76 41 126t113 75q-74 45 -112 117.5t-38 162.5q0 100 53.5 179t149.5 123t217 44q115 0 209 -40q57 208 287 208h2l37 -143q-201 0 -244 -113q61 -47 95 -112.5t34 -145.5q0 -100 -53.5 -179t-149.5 -123t-217 -44 q-90 0 -158 19q-61 -14 -87.5 -45t-26.5 -84t36.5 -82t98.5 -29h340q145 0 227 -65.5t82 -178.5q0 -98 -67.5 -172.5t-183 -114.5t-255.5 -40q-233 0 -352 74.5t-119 195.5zM246 -137q0 -78 86 -122t252 -44q155 0 245.5 50t90.5 122q0 59 -46.5 90t-156.5 31h-275 q-94 0 -145 -34t-51 -93zM309 698q0 -94 72 -153.5t178 -59.5t178 59.5t72 153.5t-71.5 153.5t-178.5 59.5q-106 0 -178 -59t-72 -154z" />
<glyph unicode="h" horiz-adv-x="1267" d="M190 0v1495h164v-625q51 88 138.5 131t195.5 43q174 0 286.5 -100t112.5 -289v-655h-163v598q0 160 -69 231.5t-183 71.5q-80 0 -153 -37t-119 -117.5t-46 -203.5v-543h-164z" />
<glyph unicode="i" horiz-adv-x="544" d="M150 1343q0 55 33.5 89t88.5 34t89 -33.5t34 -89.5q0 -55 -33.5 -88.5t-89.5 -33.5q-55 0 -88.5 33.5t-33.5 88.5zM190 0v1024h164v-1024h-164z" />
<glyph unicode="j" horiz-adv-x="544" d="M-162 -373l35 156q72 -63 168 -64q150 0 149 193v1112h164v-1128q0 -174 -93 -255t-218 -81q-61 0 -114.5 18.5t-90.5 48.5zM150 1343q0 51 35.5 87t86.5 36q52 0 87.5 -35.5t35.5 -87.5q0 -51 -35.5 -86.5t-87.5 -35.5q-51 0 -86.5 35.5t-35.5 86.5z" />
<glyph unicode="k" horiz-adv-x="1161" d="M190 0v1495h164v-1001l531 530h205l-400 -399l424 -625h-199l-344 506l-217 -217v-289h-164z" />
<glyph unicode="l" horiz-adv-x="626" d="M182 254v1241h164v-1221q0 -78 23.5 -107.5t87.5 -29.5q43 0 74.5 6.5t74.5 22.5l-26 -158q-66 -28 -146 -28h-6q-125 0 -185.5 67.5t-60.5 206.5z" />
<glyph unicode="m" horiz-adv-x="1951" d="M190 0v1024h144l10 -160q53 90 140 135t188 45q113 0 208 -51t144 -149q45 98 147.5 149t208.5 51q103 0 192 -41.5t144.5 -130t55.5 -217.5v-655h-164v639q0 133 -66.5 197.5t-175.5 64.5q-82 0 -150.5 -40t-110.5 -116.5t-42 -183.5v-561h-164v639q0 133 -66.5 197.5 t-175.5 64.5q-74 0 -143.5 -38t-114.5 -117.5t-45 -198.5v-547h-164z" />
<glyph unicode="n" horiz-adv-x="1267" d="M190 0v1024h144l10 -160q51 92 141 136t203 44q174 0 286.5 -100t112.5 -289v-655h-163v598q0 160 -69 231.5t-183 71.5q-82 0 -154 -36t-118 -116.5t-46 -203.5v-545h-164z" />
<glyph unicode="o" horiz-adv-x="1245" d="M127 512q0 250 132 391t364 141q231 0 363 -141t132 -391t-132 -391t-363 -141t-363.5 141t-132.5 391zM291 512q0 -182 88 -286.5t244 -104.5t243.5 104.5t87.5 286.5t-88 286.5t-243 104.5q-156 0 -244 -104.5t-88 -286.5z" />
<glyph unicode="p" horiz-adv-x="1290" d="M190 -430v1454h144l10 -178q45 90 138 144t212 54q215 0 341 -142t126 -390t-126 -390t-341 -142q-113 0 -202 49t-138 131v-590h-164zM354 500q0 -172 87 -274.5t235 -102.5q149 0 235 105.5t86 283.5t-86 283.5t-235 105.5q-147 0 -234.5 -102.5t-87.5 -274.5v-24z" />
<glyph unicode="q" horiz-adv-x="1292" d="M131 512q0 248 126 390t341 142q119 0 212 -54t138 -144l10 178h144v-1454h-164v590q-49 -82 -138 -131t-202 -49q-215 0 -341 142t-126 390zM295 512q0 -178 86 -283.5t235 -105.5q148 0 235 102.5t87 274.5v24q0 172 -87 274.5t-235 102.5q-150 0 -235.5 -105.5 t-85.5 -283.5z" />
<glyph unicode="r" horiz-adv-x="835" d="M190 0v1024h134l22 -168q86 188 328 188q73 0 112 -20l-32 -160q-49 27 -129 27q-66 0 -128.5 -38t-102.5 -114.5t-40 -185.5v-553h-164z" />
<glyph unicode="s" horiz-adv-x="1079" d="M98 211l133 92q35 -90 121 -135t203 -45q121 0 184.5 43t63.5 108q0 59 -59.5 95.5t-208.5 62.5q-147 27 -233.5 65t-125.5 96t-39 144q0 84 49.5 154t141.5 111.5t213 41.5q164 0 263 -60t142 -185l-139 -82q-33 98 -99.5 141t-166.5 43t-170 -45t-70 -104 q0 -68 60.5 -105t216.5 -63q213 -35 301 -104.5t88 -196.5q0 -88 -52.5 -157t-149.5 -107.5t-226 -38.5q-148 0 -266.5 58t-174.5 173z" />
<glyph unicode="t" horiz-adv-x="858" d="M63 883v141h205v246l164 45v-291h379v-141h-379v-600q0 -74 42 -112t112 -38q98 0 174 76l57 -137q-102 -92 -264 -92q-125 0 -204 67.5t-81 206.5v629h-205z" />
<glyph unicode="u" horiz-adv-x="1267" d="M180 354v670h164v-627q0 -150 61.5 -212t180.5 -62q141 0 234 86t93 258v557h164v-1024h-143l-10 156q-102 -176 -367 -176q-166 0 -271.5 92t-105.5 282z" />
<glyph unicode="v" horiz-adv-x="1064" d="M25 1024h186l324 -858l333 858h172l-426 -1024h-163z" />
<glyph unicode="w" horiz-adv-x="1753" d="M76 1024h182l258 -834l279 834h163l279 -834l258 834h182l-356 -1024h-164l-289 815l-272 -815h-164z" />
<glyph unicode="x" horiz-adv-x="1091" d="M59 0l394 516l-369 508h205l270 -379l266 379h193l-371 -502l377 -522h-201l-282 395l-291 -395h-191z" />
<glyph unicode="y" horiz-adv-x="1095" d="M31 -354l57 139q59 -82 166 -82q59 0 105.5 36t80.5 130l54 133l-428 1022h186l256 -668l63 -182l74 203l240 647h176l-481 -1196q-59 -147 -133 -207.5t-191 -60.5q-78 0 -130 20.5t-95 65.5z" />
<glyph unicode="z" horiz-adv-x="1093" d="M117 0v125l536 629l129 133l-182 -4h-477v141h842v-125l-537 -629l-127 -133l199 4h481v-141h-864z" />
<glyph unicode="{" horiz-adv-x="718" d="M57 504v143q125 0 177.5 49t52.5 164v424q0 127 74.5 190.5t246.5 63.5l27 -133q-102 0 -148.5 -26.5t-46.5 -82.5v-450q0 -219 -233 -271q233 -51 233 -270v-450q0 -56 46 -82.5t149 -26.5l-27 -133q-172 0 -246.5 63.5t-74.5 190.5v424q0 115 -52.5 164t-177.5 49z" />
<glyph unicode="|" horiz-adv-x="497" d="M178 -344v1839h141v-1839h-141z" />
<glyph unicode="}" horiz-adv-x="718" d="M84 -254q102 0 148.5 26.5t46.5 82.5v450q0 219 233 270q-233 51 -233 271v450q0 55 -46.5 82t-148.5 27l27 133q172 0 246.5 -63.5t74.5 -190.5v-424q0 -115 52.5 -164t177.5 -49v-143q-125 0 -177.5 -49t-52.5 -164v-424q0 -127 -74.5 -190.5t-246.5 -63.5z" />
<glyph unicode="~" horiz-adv-x="1105" d="M88 481q25 305 268 305q66 0 115 -21.5t113 -64.5q47 -33 79.5 -49t71.5 -16q100 0 127 151h156q-12 -151 -80 -228t-186 -77q-68 0 -117 22.5t-111 63.5q-47 33 -79.5 49.5t-73.5 16.5q-100 0 -127 -152h-156z" />
<glyph unicode="&#xa1;" horiz-adv-x="540" d="M137 911q0 59 37 96t96 37t96 -36.5t37 -96.5q0 -59 -36.5 -96t-96.5 -37q-59 0 -96 37t-37 96zM184 258l25 340h123l24 -340v-586h-172v586z" />
<glyph unicode="&#xa2;" horiz-adv-x="1161" d="M139 512q0 225 108.5 363.5t305.5 164.5v189h137v-187q260 -25 365 -270l-156 -74q-57 178 -209 207v-788q174 27 228 217l147 -51q-45 -131 -141.5 -209t-233.5 -92v-187h-137v189q-197 27 -305.5 165t-108.5 363zM293 512q0 -166 67.5 -267.5t192.5 -125.5v786 q-125 -25 -192.5 -126t-67.5 -267z" />
<glyph unicode="&#xa3;" horiz-adv-x="1282" d="M102 156q0 76 65.5 129t176.5 53q123 0 240 -68q10 45 10 84q0 53 -18.5 102.5t-61.5 112.5h-338v133h236q-59 80 -84 137.5t-25 116.5q0 119 55.5 214.5t153.5 148.5t223 53q162 0 262.5 -79t145.5 -240l-142 -78q-31 123 -94 185.5t-180 62.5q-125 0 -198.5 -65.5 t-73.5 -174.5q0 -57 24.5 -112.5t93.5 -153.5l11 -15h385v-133h-303q51 -102 51 -207q0 -80 -35 -161q63 -45 112.5 -67.5t110.5 -22.5q88 0 127 47t41 155h133q0 -164 -72.5 -248.5t-205.5 -84.5q-84 0 -156 30.5t-158 87.5q-109 -119 -286 -118q-102 0 -164 49t-62 127z M252 156q0 -31 26.5 -48.5t69.5 -17.5q106 0 174 68q-100 57 -176 57q-94 0 -94 -59z" />
<glyph unicode="&#xa4;" horiz-adv-x="1361" d="M143 240l181 184q-74 106 -74 250q0 141 76 254l-183 178l105 104l182 -180q109 74 252 74q147 0 254 -76l178 182l105 -104l-179 -182q72 -111 72 -250q0 -143 -76 -256l183 -178l-105 -105l-184 178q-109 -72 -248 -71q-143 0 -256 77l-178 -184zM414 674 q0 -125 75.5 -205t192.5 -80q115 0 190.5 80t75.5 205q0 123 -75.5 202.5t-190.5 79.5q-117 0 -192.5 -79.5t-75.5 -202.5z" />
<glyph unicode="&#xa5;" horiz-adv-x="1269" d="M70 1352h190l275 -498l98 -203h4l98 205l275 496h190l-455 -752l91 8h266v-123h-395v-153h395v-113h-395v-219h-144v219h-393v113h393v153h-393v123h264l90 -8z" />
<glyph unicode="&#xa6;" horiz-adv-x="522" d="M190 -344v743h142v-743h-142zM190 752v743h142v-743h-142z" />
<glyph unicode="&#xa7;" horiz-adv-x="1224" d="M66 592q0 92 52 162.5t136 117.5q-63 70 -64 193q0 86 53.5 155.5t154 110.5t233.5 41q162 0 261 -54t165 -153l-115 -98q-53 82 -127 122t-188 40q-131 0 -202 -39t-71 -111q0 -61 33 -101t110.5 -65.5t217.5 -44.5q248 -33 350 -104.5t102 -208.5q0 -92 -52 -162.5 t-136 -118.5q63 -70 63 -192q0 -86 -52 -155.5t-149.5 -110.5t-224.5 -41q-156 0 -262 53t-178 154l121 100q47 -84 124 -124t193 -40q125 0 195 40t70 110q0 61 -33 100t-111 65.5t-217 45.5q-168 23 -266 61.5t-142 99t-44 152.5zM229 606q0 -76 73 -115.5t259 -62.5 q184 -23 285 -66q158 70 158 179q0 76 -73 116.5t-259 61.5q-180 23 -285 63q-158 -63 -158 -176z" />
<glyph unicode="&#xa8;" horiz-adv-x="1024" d="M203 1309q0 53 32.5 84.5t83.5 31.5q54 0 85.5 -31.5t31.5 -84.5q0 -51 -31.5 -84t-85.5 -33q-51 0 -83.5 32.5t-32.5 84.5zM600 1309q0 53 33 84.5t84 31.5q53 0 85 -31.5t32 -84.5q0 -51 -32 -84t-85 -33q-51 0 -84 32.5t-33 84.5z" />
<glyph unicode="&#xa9;" horiz-adv-x="1679" d="M139 676q0 209 86 366.5t245 243.5t370 86t369.5 -86t244.5 -243.5t86 -366.5t-86 -366.5t-244.5 -243.5t-369.5 -86t-370 86t-245 243.5t-86 366.5zM285 676q0 -170 68.5 -297t193.5 -196.5t293 -69.5t292.5 69.5t193.5 196.5t69 297t-69 297t-193.5 196.5t-292.5 69.5 t-293 -69.5t-193.5 -196.5t-68.5 -297zM481 672q0 176 99.5 277.5t273.5 101.5q119 0 199 -50.5t121 -144.5l-119 -59q-51 131 -203 131q-109 0 -171.5 -67.5t-62.5 -188.5t62.5 -188.5t171.5 -67.5q166 0 217 137l113 -45q-39 -102 -123 -158.5t-205 -56.5 q-174 0 -273.5 101.5t-99.5 277.5z" />
<glyph unicode="&#xaa;" horiz-adv-x="782" d="M39 840q0 86 64.5 138t201.5 77l191 32v29q0 63 -40 99t-112 36q-70 0 -118 -28.5t-74 -96.5l-101 60q25 80 101.5 128t197.5 48q139 0 212 -61.5t73 -180.5v-286q0 -63 63 -64q34 0 50 8l-11 -90q-41 -18 -80 -18q-53 0 -89 25.5t-48 76.5q-35 -47 -102.5 -74.5 t-153.5 -27.5q-104 0 -164.5 44t-60.5 126zM53 412v108h656v-108h-656zM182 856q0 -41 29 -58.5t90 -17.5q74 0 134.5 38t60.5 100v77l-146 -28q-90 -18 -129 -42t-39 -69z" />
<glyph unicode="&#xab;" horiz-adv-x="1009" d="M104 543l258 401h179l-262 -401l262 -402h-179zM466 543l258 401h179l-262 -401l262 -402h-179z" />
<glyph unicode="&#xac;" d="M121 571v154h995v-457h-164v303h-831z" />
<glyph unicode="&#xad;" horiz-adv-x="1044" d="M184 451v170h676v-170h-676z" />
<glyph unicode="&#xae;" horiz-adv-x="1679" d="M139 676q0 209 86 366.5t245 243.5t370 86t369.5 -86t244.5 -243.5t86 -366.5t-86 -366.5t-244.5 -243.5t-369.5 -86t-370 86t-245 243.5t-86 366.5zM285 676q0 -170 68.5 -297t193.5 -196.5t293 -69.5t292.5 69.5t193.5 196.5t69 297t-69 297t-193.5 196.5t-292.5 69.5 t-293 -69.5t-193.5 -196.5t-68.5 -297zM575 293v758h312q129 0 208 -65.5t79 -176.5q0 -86 -49.5 -146.5t-135.5 -82.5l201 -287h-156l-182 274h-139v-274h-138zM713 672h172q152 0 151 137q0 137 -151 137h-172v-274z" />
<glyph unicode="&#xaf;" horiz-adv-x="1024" d="M156 1221v137h712v-137h-712z" />
<glyph unicode="&#xb0;" horiz-adv-x="942" d="M123 1034q0 96 45 174t124 121t179 43t179 -43t124 -121t45 -174t-45 -174t-124 -121t-179 -43t-179 43t-124 121t-45 174zM266 1034q0 -88 58.5 -146.5t146.5 -58.5q90 0 147.5 58.5t57.5 146.5q0 90 -57.5 147.5t-147.5 57.5q-88 0 -146.5 -57.5t-58.5 -147.5z" />
<glyph unicode="&#xb1;" d="M121 0v154h995v-154h-995zM121 735v154h422v422h153v-422h420v-154h-420v-420h-153v420h-422z" />
<glyph unicode="&#xb2;" horiz-adv-x="747" d="M57 1241q8 123 92 193.5t220 70.5q143 0 222 -75.5t79 -184.5q0 -90 -72 -181t-225 -198l-107 -71v-2q74 6 131 6h291v-117h-608v98q135 94 188 138q147 117 199.5 183t52.5 136q0 68 -41 108.5t-117 40.5q-80 0 -126 -50t-50 -140z" />
<glyph unicode="&#xb3;" horiz-adv-x="741" d="M49 866l137 62q12 -72 55.5 -106t120.5 -34q72 0 116 36t44 98q0 115 -160 114h-49v103h43q72 0 109 31.5t37 91.5q0 61 -36 92.5t-104 31.5q-63 0 -103 -30.5t-52 -91.5l-133 47q25 96 104.5 145t192.5 49q133 0 207.5 -60.5t74.5 -160.5q0 -86 -51 -137t-110 -55v-2 q70 -2 125 -52.5t55 -136.5q0 -104 -86 -167.5t-221 -63.5q-252 0 -316 196z" />
<glyph unicode="&#xb4;" horiz-adv-x="1024" d="M426 1194l156 342h178l-201 -342h-133z" />
<glyph unicode="&#xb5;" horiz-adv-x="1251" d="M178 -430v1454h164v-627q0 -150 61.5 -212t180.5 -62q133 0 220 67.5t107 186.5v647h164v-1024h-133l-14 166q-106 -186 -373 -186q-135 0 -213 92v-502h-164z" />
<glyph unicode="&#xb6;" horiz-adv-x="1304" d="M84 922q0 201 135 315.5t385 114.5h514v-1557h-143v1419h-264v-1419h-150v699q-221 2 -349 117.5t-128 310.5z" />
<glyph unicode="&#xb7;" horiz-adv-x="462" d="M98 727q0 59 37 96t96 37q60 0 97 -37t37 -96t-37 -96t-97 -37q-59 0 -96 37t-37 96z" />
<glyph unicode="&#xb8;" horiz-adv-x="1024" d="M299 -369l61 113q27 -27 64 -44t78 -17q49 0 82.5 32.5t33.5 85.5q0 66 -41.5 109t-160.5 96l90 53q123 -37 189.5 -114.5t66.5 -165.5q0 -90 -64.5 -154.5t-173.5 -64.5q-145 0 -225 71z" />
<glyph unicode="&#xb9;" horiz-adv-x="495" d="M20 1225v123q59 12 134 56t106 91h127v-813h-143v514q0 41 4 147q-47 -45 -106.5 -76.5t-121.5 -41.5z" />
<glyph unicode="&#xba;" horiz-adv-x="737" d="M47 1016q0 164 83 255t239 91t238.5 -91t82.5 -255t-83 -255t-238 -91q-156 0 -239 91t-83 255zM74 412v108h590v-108h-590zM190 1016q0 -113 44.5 -173.5t134.5 -60.5t134 60.5t44 173.5t-45 174t-133 61t-133.5 -61.5t-45.5 -173.5z" />
<glyph unicode="&#xbb;" horiz-adv-x="1007" d="M104 141l263 402l-263 401h179l258 -401l-258 -402h-179zM467 141l262 402l-262 401h178l258 -401l-258 -402h-178z" />
<glyph unicode="&#xbc;" horiz-adv-x="1613" d="M20 1092v122q59 12 134 56.5t106 91.5h127v-813h-143v514q0 41 4 147q-47 -45 -106.5 -76.5t-121.5 -41.5zM181 0l977 1352h161l-977 -1352h-161zM899 195v75l373 535h156v-508h145v-102h-145v-203h-121v203h-408zM1039 297h268v233q0 80 6 156h-6q-37 -68 -66 -111z" />
<glyph unicode="&#xbd;" horiz-adv-x="1751" d="M20 1092v122q59 12 134 56.5t106 91.5h127v-813h-143v514q0 41 4 147q-47 -45 -106.5 -76.5t-121.5 -41.5zM181 0l977 1352h161l-977 -1352h-161zM1061 551q8 123 92 193.5t220 70.5q143 0 222 -75.5t79 -184.5q0 -90 -72 -181t-225 -198l-107 -72v-2q74 6 131 7h291 v-117h-608v98q135 94 188 137q147 117 199.5 183.5t52.5 136.5q0 68 -41 108.5t-117 40.5q-80 0 -126 -50t-50 -140z" />
<glyph unicode="&#xbe;" horiz-adv-x="1859" d="M49 733l137 62q12 -72 55.5 -106t120.5 -34q72 0 116 36t44 97q0 115 -160 115h-49v103h43q72 0 109 31.5t37 90.5q0 61 -36 93t-104 32q-63 0 -103 -30.5t-52 -92.5l-133 48q25 96 104.5 145t192.5 49q133 0 207.5 -60.5t74.5 -160.5q0 -86 -51 -137t-110 -56v-2 q70 -2 125 -52t55 -136q0 -104 -86 -167.5t-221 -63.5q-252 0 -316 196zM426 0l977 1352h161l-977 -1352h-161zM1144 195v75l373 535h156v-508h145v-102h-145v-203h-121v203h-408zM1284 297h268v233q0 80 6 156h-6q-37 -68 -66 -111z" />
<glyph unicode="&#xbf;" horiz-adv-x="1099" d="M96 0q0 170 106.5 265t278.5 114v219h170v-307q-207 -31 -295 -92.5t-88 -178.5q0 -100 74 -157.5t215 -57.5q135 0 220 75t102 204l145 -84q-35 -160 -162 -254t-317 -94q-199 0 -324 94t-125 254zM436 911q0 59 37 96t96 37t96 -36.5t37 -96.5q0 -59 -36.5 -96 t-96.5 -37q-59 0 -96 37t-37 96z" />
<glyph unicode="&#xc0;" horiz-adv-x="1351" d="M53 0l527 1352h194l524 -1352h-174l-143 375h-612l-144 -375h-172zM428 528h494l-183 480l-63 188h-4l-60 -182zM434 1825h193l116 -303h-133z" />
<glyph unicode="&#xc1;" horiz-adv-x="1351" d="M53 0l527 1352h194l524 -1352h-174l-143 375h-612l-144 -375h-172zM428 528h494l-183 480l-63 188h-4l-60 -182zM590 1522l117 303h192l-176 -303h-133z" />
<glyph unicode="&#xc2;" horiz-adv-x="1351" d="M53 0l527 1352h194l524 -1352h-174l-143 375h-612l-144 -375h-172zM350 1507l234 342h184l233 -342h-149l-176 236l-176 -236h-150zM428 528h494l-183 480l-63 188h-4l-60 -182z" />
<glyph unicode="&#xc3;" horiz-adv-x="1351" d="M53 0l527 1352h194l524 -1352h-174l-143 375h-612l-144 -375h-172zM303 1520q10 137 66.5 205.5t165.5 68.5q57 0 97 -22.5t85 -63.5q31 -27 52.5 -40t43.5 -13q43 0 66.5 36t36.5 105h129q-23 -274 -230 -274q-59 0 -98 21.5t-84 62.5q-33 29 -53.5 42t-46.5 13 q-43 0 -65.5 -34.5t-35.5 -106.5h-129zM428 528h494l-183 480l-63 188h-4l-60 -182z" />
<glyph unicode="&#xc4;" horiz-adv-x="1351" d="M53 0l527 1352h194l524 -1352h-174l-143 375h-612l-144 -375h-172zM361 1637q0 53 32.5 84.5t83.5 31.5q54 0 85.5 -31.5t31.5 -84.5q0 -51 -31.5 -84t-85.5 -33q-51 0 -83.5 32.5t-32.5 84.5zM428 528h494l-183 480l-63 188h-4l-60 -182zM758 1637q0 53 33 84.5t84 31.5 q53 0 85 -31.5t32 -84.5q0 -51 -32 -84t-85 -33q-51 0 -84 32.5t-33 84.5z" />
<glyph unicode="&#xc5;" horiz-adv-x="1351" d="M53 0l500 1284q-63 29 -98 86t-35 133q0 109 71.5 175.5t186.5 66.5t185.5 -66.5t70.5 -175.5q0 -76 -35 -133t-98 -86l497 -1284h-174l-143 375h-612l-144 -375h-172zM428 528h494l-183 480l-63 188h-4l-60 -182zM530 1503q0 -61 41 -101t105 -40q63 0 104 40t41 101 t-41 101.5t-104 40.5q-64 0 -105 -40t-41 -102z" />
<glyph unicode="&#xc6;" horiz-adv-x="1953" d="M12 0l791 1352h1014v-154h-730v-436h555v-154h-555v-454h760v-154h-923v436h-484l-252 -436h-176zM530 590h394v608h-41z" />
<glyph unicode="&#xc7;" horiz-adv-x="1404" d="M139 676q0 211 77 368.5t218 242.5t328 85q195 0 327 -80t197 -235l-162 -76q-45 119 -131 178.5t-219 59.5q-139 0 -243.5 -64.5t-162 -187.5t-57.5 -291q0 -254 122 -398.5t333 -144.5q137 0 237.5 69.5t143.5 205.5l164 -62q-56 -147 -168.5 -239.5t-263.5 -116.5 q55 -43 84.5 -98.5t29.5 -112.5q0 -90 -64.5 -154.5t-172.5 -64.5q-145 0 -226 71l62 113q27 -27 63.5 -44t77.5 -17q49 0 83 32.5t34 85.5q0 59 -33 99.5t-119 81.5q-172 14 -298 103t-193.5 240.5t-67.5 350.5z" />
<glyph unicode="&#xc8;" horiz-adv-x="1306" d="M221 0v1352h948v-154h-784v-436h610v-154h-610v-454h815v-154h-979zM483 1825h193l117 -303h-134z" />
<glyph unicode="&#xc9;" horiz-adv-x="1306" d="M221 0v1352h948v-154h-784v-436h610v-154h-610v-454h815v-154h-979zM608 1522l117 303h193l-177 -303h-133z" />
<glyph unicode="&#xca;" horiz-adv-x="1306" d="M221 0v1352h948v-154h-784v-436h610v-154h-610v-454h815v-154h-979zM369 1507l233 342h184l234 -342h-150l-176 236l-176 -236h-149z" />
<glyph unicode="&#xcb;" horiz-adv-x="1306" d="M221 0v1352h948v-154h-784v-436h610v-154h-610v-454h815v-154h-979zM379 1637q0 53 32.5 84.5t83.5 31.5q54 0 85.5 -31.5t31.5 -84.5q0 -51 -31.5 -84t-85.5 -33q-51 0 -83.5 32.5t-32.5 84.5zM776 1637q0 53 33 84.5t84 31.5q53 0 85 -31.5t32 -84.5q0 -51 -32 -84 t-85 -33q-51 0 -84 32.5t-33 84.5z" />
<glyph unicode="&#xcc;" horiz-adv-x="606" d="M61 1825h193l117 -303h-133zM221 0v1352h164v-1352h-164z" />
<glyph unicode="&#xcd;" horiz-adv-x="606" d="M217 1522l117 303h192l-176 -303h-133zM221 0v1352h164v-1352h-164z" />
<glyph unicode="&#xce;" horiz-adv-x="606" d="M-23 1507l234 342h184l234 -342h-150l-176 236l-176 -236h-150zM221 0v1352h164v-1352h-164z" />
<glyph unicode="&#xcf;" horiz-adv-x="606" d="M10 1636q0 53 33 85t84 32q53 0 85 -31.5t32 -85.5q0 -51 -32 -83.5t-85 -32.5q-51 0 -84 32.5t-33 83.5zM221 0v1352h164v-1352h-164zM362 1636q0 53 33 85t84 32q53 0 85 -31.5t32 -85.5q0 -51 -32 -83.5t-85 -32.5q-51 0 -84 32.5t-33 83.5z" />
<glyph unicode="&#xd0;" horiz-adv-x="1509" d="M53 621v122h201v609h436q320 0 500 -176.5t180 -499.5q0 -324 -180 -500t-500 -176h-436v621h-201zM418 154h289q231 0 361 138t130 384t-130 384t-361 138h-289v-455h403v-122h-403v-467z" />
<glyph unicode="&#xd1;" horiz-adv-x="1503" d="M221 0v1352h203l563 -901l146 -271h2l-9 217v955h156v-1352h-203l-565 905l-143 266h-2l8 -217v-954h-156zM387 1520q10 137 66.5 205.5t165.5 68.5q57 0 97 -22.5t85 -63.5q31 -27 52.5 -40t43.5 -13q43 0 66.5 36t36.5 105h129q-23 -274 -230 -274q-59 0 -98 21.5 t-84 62.5q-33 29 -53.5 42t-46.5 13q-43 0 -65.5 -34.5t-35.5 -106.5h-129z" />
<glyph unicode="&#xd2;" horiz-adv-x="1531" d="M139 676q0 213 77 369.5t218 241.5t332 85q190 0 331.5 -85t218.5 -241.5t77 -369.5t-77 -369.5t-218.5 -241.5t-331.5 -85t-331.5 85t-218.5 241.5t-77 369.5zM311 676q0 -254 122 -398.5t333 -144.5t333 144.5t122 398.5t-122 398.5t-333 144.5t-333 -144.5 t-122 -398.5zM524 1825h193l117 -303h-134z" />
<glyph unicode="&#xd3;" horiz-adv-x="1531" d="M139 676q0 213 77 369.5t218 241.5t332 85q190 0 331.5 -85t218.5 -241.5t77 -369.5t-77 -369.5t-218.5 -241.5t-331.5 -85t-331.5 85t-218.5 241.5t-77 369.5zM311 676q0 -254 122 -398.5t333 -144.5t333 144.5t122 398.5t-122 398.5t-333 144.5t-333 -144.5 t-122 -398.5zM680 1522l117 303h192l-176 -303h-133z" />
<glyph unicode="&#xd4;" horiz-adv-x="1531" d="M139 676q0 213 77 369.5t218 241.5t332 85q190 0 331.5 -85t218.5 -241.5t77 -369.5t-77 -369.5t-218.5 -241.5t-331.5 -85t-331.5 85t-218.5 241.5t-77 369.5zM311 676q0 -254 122 -398.5t333 -144.5t333 144.5t122 398.5t-122 398.5t-333 144.5t-333 -144.5 t-122 -398.5zM440 1507l234 342h184l234 -342h-150l-176 236l-176 -236h-150z" />
<glyph unicode="&#xd5;" horiz-adv-x="1531" d="M139 676q0 213 77 369.5t218 241.5t332 85q190 0 331.5 -85t218.5 -241.5t77 -369.5t-77 -369.5t-218.5 -241.5t-331.5 -85t-331.5 85t-218.5 241.5t-77 369.5zM311 676q0 -254 122 -398.5t333 -144.5t333 144.5t122 398.5t-122 398.5t-333 144.5t-333 -144.5 t-122 -398.5zM393 1520q10 137 66.5 205.5t165.5 68.5q57 0 97 -22.5t85 -63.5q31 -27 52.5 -40t43.5 -13q43 0 66.5 36t36.5 105h129q-23 -274 -230 -274q-59 0 -98 21.5t-84 62.5q-33 29 -53.5 42t-46.5 13q-43 0 -65.5 -34.5t-35.5 -106.5h-129z" />
<glyph unicode="&#xd6;" horiz-adv-x="1531" d="M139 676q0 213 77 369.5t218 241.5t332 85q190 0 331.5 -85t218.5 -241.5t77 -369.5t-77 -369.5t-218.5 -241.5t-331.5 -85t-331.5 85t-218.5 241.5t-77 369.5zM311 676q0 -254 122 -398.5t333 -144.5t333 144.5t122 398.5t-122 398.5t-333 144.5t-333 -144.5 t-122 -398.5zM451 1637q0 53 32.5 84.5t83.5 31.5q54 0 85.5 -31.5t31.5 -84.5q0 -51 -31.5 -84t-85.5 -33q-51 0 -83.5 32.5t-32.5 84.5zM848 1637q0 53 33 84.5t84 31.5q53 0 85 -31.5t32 -84.5q0 -51 -32 -84t-85 -33q-51 0 -84 32.5t-33 84.5z" />
<glyph unicode="&#xd7;" d="M166 307l344 344l-344 342l108 109l344 -342l343 342l108 -109l-342 -342l342 -344l-108 -108l-343 344l-344 -344z" />
<glyph unicode="&#xd8;" horiz-adv-x="1531" d="M139 676q0 213 77 369.5t218 241.5t332 85q205 0 354 -98l88 125h146l-142 -203q88 -92 134.5 -224t46.5 -296q0 -213 -77 -369.5t-218.5 -241.5t-331.5 -85q-195 0 -340 88l-100 -144h-146l152 219q-94 92 -143.5 227.5t-49.5 305.5zM311 676q0 -252 117 -393l600 858 q-109 78 -262 78q-211 0 -333 -144.5t-122 -398.5zM518 201q104 -68 248 -68q211 0 333 144.5t122 398.5q0 238 -107 379z" />
<glyph unicode="&#xd9;" horiz-adv-x="1474" d="M207 504v848h164v-807q0 -213 89 -312.5t277 -99.5t277.5 99.5t89.5 312.5v807h164v-848q0 -260 -136.5 -392t-394.5 -132t-394 133t-136 391zM496 1825h192l117 -303h-133z" />
<glyph unicode="&#xda;" horiz-adv-x="1474" d="M207 504v848h164v-807q0 -213 89 -312.5t277 -99.5t277.5 99.5t89.5 312.5v807h164v-848q0 -260 -136.5 -392t-394.5 -132t-394 133t-136 391zM651 1522l117 303h193l-177 -303h-133z" />
<glyph unicode="&#xdb;" horiz-adv-x="1474" d="M207 504v848h164v-807q0 -213 89 -312.5t277 -99.5t277.5 99.5t89.5 312.5v807h164v-848q0 -260 -136.5 -392t-394.5 -132t-394 133t-136 391zM412 1507l233 342h184l234 -342h-150l-176 236l-176 -236h-149z" />
<glyph unicode="&#xdc;" horiz-adv-x="1474" d="M207 504v848h164v-807q0 -213 89 -312.5t277 -99.5t277.5 99.5t89.5 312.5v807h164v-848q0 -260 -136.5 -392t-394.5 -132t-394 133t-136 391zM422 1637q0 53 32.5 84.5t83.5 31.5q54 0 85.5 -31.5t31.5 -84.5q0 -51 -31.5 -84t-85.5 -33q-51 0 -83.5 32.5t-32.5 84.5z M819 1637q0 53 33 84.5t84 31.5q53 0 85 -31.5t32 -84.5q0 -51 -32 -84t-85 -33q-51 0 -84 32.5t-33 84.5z" />
<glyph unicode="&#xdd;" horiz-adv-x="1171" d="M20 1352h195l371 -656l370 656h195l-483 -824v-528h-164v528zM500 1522l116 303h193l-176 -303h-133z" />
<glyph unicode="&#xde;" horiz-adv-x="1284" d="M221 0v1352h164v-242h285q250 0 377 -107.5t127 -312.5q0 -203 -127 -311.5t-377 -108.5h-285v-270h-164zM385 424h301q160 0 237.5 65.5t77.5 200.5t-77.5 200.5t-237.5 65.5h-301v-532z" />
<glyph unicode="&#xdf;" horiz-adv-x="1269" d="M190 0v1018q0 229 110 358t368 129q147 0 243.5 -57t139.5 -144t43 -180q0 -74 -35 -147.5t-110 -122.5t-185 -49v-4q133 0 219 -58.5t125 -148.5t39 -191q0 -113 -51.5 -209t-153.5 -155t-248 -59q-66 0 -126 19t-89 48l47 133q63 -51 176 -51q137 0 212 81t75 212 q0 141 -91 215t-265 74h-80v153h80q135 0 214 70t79 180q0 238 -275 238q-166 0 -231.5 -92.5t-65.5 -290.5v-969h-164z" />
<glyph unicode="&#xe0;" horiz-adv-x="1159" d="M117 254q0 117 102.5 202t296.5 117l272 45v58q0 102 -63 163.5t-176 61.5q-102 0 -177 -49t-116 -145l-121 88q41 115 152.5 182t261.5 67q182 0 292.5 -88t110.5 -260v-503q0 -37 18.5 -55.5t59.5 -18.5t82 10l-10 -129q-57 -20 -123 -20q-80 0 -126 34.5t-58 116.5 q-47 -72 -138.5 -111.5t-191.5 -39.5q-152 0 -250 70.5t-98 203.5zM287 254q0 -63 49 -97t137 -34q129 0 222 61.5t93 159.5v141l-229 -43q-137 -25 -204.5 -70.5t-67.5 -117.5zM317 1536h178l156 -342h-133z" />
<glyph unicode="&#xe1;" horiz-adv-x="1159" d="M117 254q0 117 102.5 202t296.5 117l272 45v58q0 102 -63 163.5t-176 61.5q-102 0 -177 -49t-116 -145l-121 88q41 115 152.5 182t261.5 67q182 0 292.5 -88t110.5 -260v-503q0 -37 18.5 -55.5t59.5 -18.5t82 10l-10 -129q-57 -20 -123 -20q-80 0 -126 34.5t-58 116.5 q-47 -72 -138.5 -111.5t-191.5 -39.5q-152 0 -250 70.5t-98 203.5zM287 254q0 -63 49 -97t137 -34q129 0 222 61.5t93 159.5v141l-229 -43q-137 -25 -204.5 -70.5t-67.5 -117.5zM465 1194l156 342h178l-201 -342h-133z" />
<glyph unicode="&#xe2;" horiz-adv-x="1159" d="M117 254q0 117 102.5 202t296.5 117l272 45v58q0 102 -63 163.5t-176 61.5q-102 0 -177 -49t-116 -145l-121 88q41 115 152.5 182t261.5 67q182 0 292.5 -88t110.5 -260v-503q0 -37 18.5 -55.5t59.5 -18.5t82 10l-10 -129q-57 -20 -123 -20q-80 0 -126 34.5t-58 116.5 q-47 -72 -138.5 -111.5t-191.5 -39.5q-152 0 -250 70.5t-98 203.5zM241 1180l230 342h188l230 -342h-150l-174 227l-174 -227h-150zM287 254q0 -63 49 -97t137 -34q129 0 222 61.5t93 159.5v141l-229 -43q-137 -25 -204.5 -70.5t-67.5 -117.5z" />
<glyph unicode="&#xe3;" horiz-adv-x="1159" d="M117 254q0 117 102.5 202t296.5 117l272 45v58q0 102 -63 163.5t-176 61.5q-102 0 -177 -49t-116 -145l-121 88q41 115 152.5 182t261.5 67q182 0 292.5 -88t110.5 -260v-503q0 -37 18.5 -55.5t59.5 -18.5t82 10l-10 -129q-57 -20 -123 -20q-80 0 -126 34.5t-58 116.5 q-47 -72 -138.5 -111.5t-191.5 -39.5q-152 0 -250 70.5t-98 203.5zM192 1192q10 137 66.5 205.5t165.5 68.5q57 0 97 -22.5t85 -63.5q31 -27 52.5 -40t43.5 -13q43 0 66.5 36t36.5 105h129q-23 -274 -230 -274q-59 0 -98 21.5t-84 62.5q-33 29 -53.5 42t-46.5 13 q-43 0 -65.5 -34.5t-35.5 -106.5h-129zM287 254q0 -63 49 -97t137 -34q129 0 222 61.5t93 159.5v141l-229 -43q-137 -25 -204.5 -70.5t-67.5 -117.5z" />
<glyph unicode="&#xe4;" horiz-adv-x="1159" d="M117 254q0 117 102.5 202t296.5 117l272 45v58q0 102 -63 163.5t-176 61.5q-102 0 -177 -49t-116 -145l-121 88q41 115 152.5 182t261.5 67q182 0 292.5 -88t110.5 -260v-503q0 -37 18.5 -55.5t59.5 -18.5t82 10l-10 -129q-57 -20 -123 -20q-80 0 -126 34.5t-58 116.5 q-47 -72 -138.5 -111.5t-191.5 -39.5q-152 0 -250 70.5t-98 203.5zM250 1309q0 53 32.5 84.5t83.5 31.5q54 0 85.5 -31.5t31.5 -84.5q0 -51 -31.5 -84t-85.5 -33q-51 0 -83.5 32.5t-32.5 84.5zM287 254q0 -63 49 -97t137 -34q129 0 222 61.5t93 159.5v141l-229 -43 q-137 -25 -204.5 -70.5t-67.5 -117.5zM647 1309q0 53 33 84.5t84 31.5q53 0 85 -31.5t32 -84.5q0 -51 -32 -84t-85 -33q-51 0 -84 32.5t-33 84.5z" />
<glyph unicode="&#xe5;" horiz-adv-x="1159" d="M117 254q0 117 102.5 202t296.5 117l272 45v58q0 102 -63 163.5t-176 61.5q-102 0 -177 -49t-116 -145l-121 88q41 115 152.5 182t261.5 67q182 0 292.5 -88t110.5 -260v-503q0 -37 18.5 -55.5t59.5 -18.5t82 10l-10 -129q-57 -20 -123 -20q-80 0 -126 34.5t-58 116.5 q-47 -72 -138.5 -111.5t-191.5 -39.5q-152 0 -250 70.5t-98 203.5zM287 254q0 -63 49 -97t137 -34q129 0 222 61.5t93 159.5v141l-229 -43q-137 -25 -204.5 -70.5t-67.5 -117.5zM301 1421q0 109 71.5 175.5t186.5 66.5t185.5 -66.5t70.5 -175.5t-70.5 -176t-185.5 -67 t-186.5 67.5t-71.5 175.5zM414 1421q0 -61 41 -101t104 -40t104 40t41 101t-41 101.5t-104 40.5t-104 -40t-41 -102z" />
<glyph unicode="&#xe6;" horiz-adv-x="1810" d="M117 254q0 119 98 200t283 105l305 39v78q0 102 -66.5 163.5t-185.5 61.5q-102 0 -178 -49t-117 -145l-121 88q45 117 158 183t262 66q121 0 209 -53t133 -155q57 98 147.5 153t206.5 55q213 0 326 -135t113 -344q-1 -57 -9 -114h-731q16 -154 101.5 -241t212.5 -87 q111 0 175 38t93 113l137 -71q-63 -113 -155.5 -168t-249.5 -55q-141 0 -243.5 62t-152.5 189q-41 -123 -153.5 -187t-263.5 -64q-152 0 -243 74.5t-91 199.5zM287 254q0 -131 192 -131q86 0 160 35t119 99.5t45 148.5v63l-262 -41q-135 -23 -194.5 -62.5t-59.5 -111.5z M954 596h578q-14 145 -84 225t-197 80q-121 0 -199.5 -81t-97.5 -224z" />
<glyph unicode="&#xe7;" horiz-adv-x="1155" d="M127 512q0 250 132 391t364 141q154 0 259 -70.5t165 -201.5l-156 -74q-66 203 -273 203q-154 0 -240.5 -103.5t-86.5 -285.5t87 -285.5t240 -103.5q119 0 192 54t95 157l152 -53q-45 -121 -131 -197t-207 -96q55 -43 83.5 -97.5t28.5 -111.5q0 -90 -64.5 -154.5 t-172.5 -64.5q-145 0 -225 71l61 113q27 -27 63.5 -44t77.5 -17q49 0 83 32.5t34 85.5q0 59 -33.5 99.5t-126.5 85.5q-190 29 -295.5 167t-105.5 359z" />
<glyph unicode="&#xe8;" horiz-adv-x="1189" d="M127 512q0 250 126 391t357 141q143 0 248 -63t158 -172t53 -244q0 -57 -8 -114h-772q14 -156 103 -242t231 -86q113 0 187.5 39t100.5 112l138 -71q-61 -109 -164 -166t-262 -57q-231 0 -363.5 141t-132.5 391zM291 596h620q-16 143 -94 224t-207 81q-135 0 -218 -80 t-101 -225zM356 1536h178l156 -342h-133z" />
<glyph unicode="&#xe9;" horiz-adv-x="1189" d="M127 512q0 250 126 391t357 141q143 0 248 -63t158 -172t53 -244q0 -57 -8 -114h-772q14 -156 103 -242t231 -86q113 0 187.5 39t100.5 112l138 -71q-61 -109 -164 -166t-262 -57q-231 0 -363.5 141t-132.5 391zM291 596h620q-16 143 -94 224t-207 81q-135 0 -218 -80 t-101 -225zM504 1194l156 342h178l-201 -342h-133z" />
<glyph unicode="&#xea;" horiz-adv-x="1189" d="M127 512q0 250 126 391t357 141q143 0 248 -63t158 -172t53 -244q0 -57 -8 -114h-772q14 -156 103 -242t231 -86q113 0 187.5 39t100.5 112l138 -71q-61 -109 -164 -166t-262 -57q-231 0 -363.5 141t-132.5 391zM280 1180l230 342h188l230 -342h-150l-174 227l-174 -227 h-150zM291 596h620q-16 143 -94 224t-207 81q-135 0 -218 -80t-101 -225z" />
<glyph unicode="&#xeb;" horiz-adv-x="1189" d="M127 512q0 250 126 391t357 141q143 0 248 -63t158 -172t53 -244q0 -57 -8 -114h-772q14 -156 103 -242t231 -86q113 0 187.5 39t100.5 112l138 -71q-61 -109 -164 -166t-262 -57q-231 0 -363.5 141t-132.5 391zM289 1309q0 53 32.5 84.5t83.5 31.5q54 0 85.5 -31.5 t31.5 -84.5q0 -51 -31.5 -84t-85.5 -33q-51 0 -83.5 32.5t-32.5 84.5zM291 596h620q-16 143 -94 224t-207 81q-135 0 -218 -80t-101 -225zM686 1309q0 53 33 84.5t84 31.5q53 0 85 -31.5t32 -84.5q0 -51 -32 -84t-85 -33q-51 0 -84 32.5t-33 84.5z" />
<glyph unicode="&#xec;" horiz-adv-x="544" d="M24 1536h178l156 -342h-133zM190 0v1024h164v-1024h-164z" />
<glyph unicode="&#xed;" horiz-adv-x="544" d="M190 0v1024h164v-1024h-164zM193 1194l156 342h178l-201 -342h-133z" />
<glyph unicode="&#xee;" horiz-adv-x="544" d="M-52 1180l230 342h188l230 -342h-150l-174 227l-174 -227h-150zM190 0v1024h164v-1024h-164z" />
<glyph unicode="&#xef;" horiz-adv-x="544" d="M-8 1309q0 53 32.5 84.5t84.5 31.5q53 0 85.5 -31.5t32.5 -84.5t-32.5 -85t-85.5 -32q-52 0 -84.5 32.5t-32.5 84.5zM190 0v1024h164v-1024h-164zM317 1309q0 53 33 84.5t86 31.5t85 -31.5t32 -84.5q0 -51 -32 -84t-85 -33t-86 31.5t-33 85.5z" />
<glyph unicode="&#xf0;" horiz-adv-x="1269" d="M127 487q0 154 62.5 268.5t171 176t245.5 61.5q231 0 346 -143q-25 111 -64.5 200t-101.5 164l-380 -98l-21 101l332 73q-117 111 -297 205h227q127 -76 215 -170l225 64l29 -103l-188 -39q190 -254 190 -657q0 -279 -129 -444.5t-379 -165.5q-223 0 -353 135t-130 372z M297 487q0 -170 86 -267t235 -97q105 0 182 50t117.5 133t40.5 181q0 168 -88 265.5t-241 97.5q-156 0 -244 -96.5t-88 -266.5z" />
<glyph unicode="&#xf1;" horiz-adv-x="1267" d="M190 0v1024h144l10 -160q51 92 141 136t203 44q174 0 286.5 -100t112.5 -289v-655h-163v598q0 160 -69 231.5t-183 71.5q-82 0 -154 -36t-118 -116.5t-46 -203.5v-545h-164zM278 1192q10 137 66.5 205.5t165.5 68.5q57 0 97 -22.5t85 -63.5q31 -27 52.5 -40t43.5 -13 q43 0 66.5 36t36.5 105h129q-23 -274 -230 -274q-59 0 -98 21.5t-84 62.5q-33 29 -53.5 42t-46.5 13q-43 0 -65.5 -34.5t-35.5 -106.5h-129z" />
<glyph unicode="&#xf2;" horiz-adv-x="1245" d="M127 512q0 250 132 391t364 141q231 0 363 -141t132 -391t-132 -391t-363 -141t-363.5 141t-132.5 391zM291 512q0 -182 88 -286.5t244 -104.5t243.5 104.5t87.5 286.5t-88 286.5t-243 104.5q-156 0 -244 -104.5t-88 -286.5zM375 1536h178l156 -342h-133z" />
<glyph unicode="&#xf3;" horiz-adv-x="1245" d="M127 512q0 250 132 391t364 141q231 0 363 -141t132 -391t-132 -391t-363 -141t-363.5 141t-132.5 391zM291 512q0 -182 88 -286.5t244 -104.5t243.5 104.5t87.5 286.5t-88 286.5t-243 104.5q-156 0 -244 -104.5t-88 -286.5zM522 1194l156 342h178l-201 -342h-133z" />
<glyph unicode="&#xf4;" horiz-adv-x="1245" d="M127 512q0 250 132 391t364 141q231 0 363 -141t132 -391t-132 -391t-363 -141t-363.5 141t-132.5 391zM291 512q0 -182 88 -286.5t244 -104.5t243.5 104.5t87.5 286.5t-88 286.5t-243 104.5q-156 0 -244 -104.5t-88 -286.5zM299 1180l230 342h188l230 -342h-150 l-174 227l-174 -227h-150z" />
<glyph unicode="&#xf5;" horiz-adv-x="1245" d="M127 512q0 250 132 391t364 141q231 0 363 -141t132 -391t-132 -391t-363 -141t-363.5 141t-132.5 391zM250 1192q10 137 66.5 205.5t165.5 68.5q57 0 97 -22.5t85 -63.5q31 -27 52.5 -40t43.5 -13q43 0 66.5 36t36.5 105h129q-23 -274 -230 -274q-59 0 -98 21.5 t-84 62.5q-33 29 -53.5 42t-46.5 13q-43 0 -65.5 -34.5t-35.5 -106.5h-129zM291 512q0 -182 88 -286.5t244 -104.5t243.5 104.5t87.5 286.5t-88 286.5t-243 104.5q-156 0 -244 -104.5t-88 -286.5z" />
<glyph unicode="&#xf6;" horiz-adv-x="1245" d="M127 512q0 250 132 391t364 141q231 0 363 -141t132 -391t-132 -391t-363 -141t-363.5 141t-132.5 391zM291 512q0 -182 88 -286.5t244 -104.5t243.5 104.5t87.5 286.5t-88 286.5t-243 104.5q-156 0 -244 -104.5t-88 -286.5zM307 1309q0 53 32.5 84.5t83.5 31.5 q54 0 85.5 -31.5t31.5 -84.5q0 -51 -31.5 -84t-85.5 -33q-51 0 -83.5 32.5t-32.5 84.5zM704 1309q0 53 33 84.5t84 31.5q53 0 85 -31.5t32 -84.5q0 -51 -32 -84t-85 -33q-51 0 -84 32.5t-33 84.5z" />
<glyph unicode="&#xf7;" d="M121 571v154h995v-154h-995zM485 246q0 59 37 96t96 37q60 0 97 -37t37 -96t-37 -96t-97 -37q-59 0 -96 36.5t-37 96.5zM485 1047q0 59 37 96t96 37q60 0 97 -37t37 -96t-37 -96.5t-97 -37.5q-59 0 -96 37t-37 97z" />
<glyph unicode="&#xf8;" horiz-adv-x="1247" d="M125 -76l141 189q-139 143 -139 399q0 250 132 391t364 141q169 1 288 -77l80 104h137l-135 -176q125 -141 125 -383q0 -250 -132 -391t-363 -141q-156 0 -269 65l-92 -121h-137zM291 512q0 -164 74 -270h2l73 100l379 502q-82 59 -196 59q-156 0 -244 -104.5t-88 -286.5 zM446 168q72 -47 177 -47q155 0 243 104.5t88 286.5q0 152 -61 250h-2l-66 -90z" />
<glyph unicode="&#xf9;" horiz-adv-x="1267" d="M180 354v670h164v-627q0 -150 61.5 -212t180.5 -62q141 0 234 86t93 258v557h164v-1024h-143l-10 156q-102 -176 -367 -176q-166 0 -271.5 92t-105.5 282zM383 1536h178l156 -342h-133z" />
<glyph unicode="&#xfa;" horiz-adv-x="1267" d="M180 354v670h164v-627q0 -150 61.5 -212t180.5 -62q141 0 234 86t93 258v557h164v-1024h-143l-10 156q-102 -176 -367 -176q-166 0 -271.5 92t-105.5 282zM530 1194l156 342h178l-201 -342h-133z" />
<glyph unicode="&#xfb;" horiz-adv-x="1267" d="M180 354v670h164v-627q0 -150 61.5 -212t180.5 -62q141 0 234 86t93 258v557h164v-1024h-143l-10 156q-102 -176 -367 -176q-166 0 -271.5 92t-105.5 282zM307 1180l230 342h188l230 -342h-150l-174 227l-174 -227h-150z" />
<glyph unicode="&#xfc;" horiz-adv-x="1267" d="M180 354v670h164v-627q0 -150 61.5 -212t180.5 -62q141 0 234 86t93 258v557h164v-1024h-143l-10 156q-102 -176 -367 -176q-166 0 -271.5 92t-105.5 282zM316 1309q0 53 32.5 84.5t83.5 31.5q54 0 85.5 -31.5t31.5 -84.5q0 -51 -31.5 -84t-85.5 -33q-51 0 -83.5 32.5 t-32.5 84.5zM713 1309q0 53 33 84.5t84 31.5q53 0 85 -31.5t32 -84.5q0 -51 -32 -84t-85 -33q-51 0 -84 32.5t-33 84.5z" />
<glyph unicode="&#xfd;" horiz-adv-x="1095" d="M31 -354l57 139q59 -82 166 -82q59 0 105.5 36t80.5 130l54 133l-428 1022h186l256 -668l63 -182l74 203l240 647h176l-481 -1196q-59 -147 -133 -207.5t-191 -60.5q-78 0 -130 20.5t-95 65.5zM459 1194l156 342h178l-201 -342h-133z" />
<glyph unicode="&#xfe;" horiz-adv-x="1290" d="M190 -430v1925h164v-612q53 74 140.5 117.5t199.5 43.5q215 0 341 -142t126 -390t-126 -390t-341 -142q-113 0 -199.5 44t-140.5 117v-571h-164zM354 500q0 -172 87 -274.5t235 -102.5q149 0 235 105.5t86 283.5t-86 283.5t-235 105.5q-147 0 -234.5 -102.5t-87.5 -274.5 v-24z" />
<glyph unicode="&#xff;" horiz-adv-x="1095" d="M31 -354l57 139q59 -82 166 -82q59 0 105.5 36t80.5 130l54 133l-428 1022h186l256 -668l63 -182l74 203l240 647h176l-481 -1196q-59 -147 -133 -207.5t-191 -60.5q-78 0 -130 20.5t-95 65.5zM244 1309q0 53 32.5 84.5t83.5 31.5q54 0 85.5 -31.5t31.5 -84.5 q0 -51 -31.5 -84t-85.5 -33q-51 0 -83.5 32.5t-32.5 84.5zM641 1309q0 53 33 84.5t84 31.5q53 0 85 -31.5t32 -84.5q0 -51 -32 -84t-85 -33q-51 0 -84 32.5t-33 84.5z" />
<glyph unicode="&#x152;" horiz-adv-x="2211" d="M139 676q0 213 75 369.5t217 241.5t339 85q135 0 245.5 -56t184.5 -163v199h875v-154h-725v-436h551v-154h-551v-454h755v-154h-905v203q-76 -109 -188.5 -166t-249.5 -57q-190 0 -330.5 85t-216.5 241.5t-76 369.5zM311 676q0 -256 120 -399.5t339 -143.5 q127 0 224.5 65.5t151.5 187.5t54 290t-54 289.5t-151.5 187.5t-224.5 66q-219 0 -339 -143.5t-120 -399.5z" />
<glyph unicode="&#x153;" horiz-adv-x="2025" d="M127 512q0 250 133 391t369 141q145 0 250.5 -59t164.5 -170q53 111 156 170t244 59q143 0 247.5 -63t158 -172t53.5 -244q-1 -57 -9 -114h-772q14 -156 103.5 -242t230.5 -86q113 0 187.5 39t101.5 112l137 -71q-61 -109 -163.5 -166t-262.5 -57q-143 0 -247.5 60 t-164.5 173q-57 -113 -163.5 -173t-251.5 -60q-236 0 -369 141t-133 391zM297 512q0 -182 88 -285.5t244 -103.5q155 0 243.5 103.5t88.5 285.5t-88.5 285.5t-243.5 103.5q-156 0 -244 -103.5t-88 -285.5zM1124 596h621q-16 143 -94 224t-207 81q-135 0 -218 -80t-102 -225z " />
<glyph unicode="&#x178;" horiz-adv-x="1171" d="M20 1352h195l371 -656l370 656h195l-483 -824v-528h-164v528zM271 1637q0 53 32.5 84.5t83.5 31.5q54 0 85.5 -31.5t31.5 -84.5q0 -51 -31.5 -84t-85.5 -33q-51 0 -83.5 32.5t-32.5 84.5zM668 1637q0 53 33 84.5t84 31.5q53 0 85 -31.5t32 -84.5q0 -51 -32 -84t-85 -33 q-51 0 -84 32.5t-33 84.5z" />
<glyph unicode="&#x2c6;" horiz-adv-x="1024" d="M188 1180l230 342h188l230 -342h-150l-174 227l-174 -227h-150z" />
<glyph unicode="&#x2dc;" horiz-adv-x="1024" d="M141 1192q10 137 66.5 205.5t165.5 68.5q57 0 97 -22.5t85 -63.5q31 -27 52.5 -40t43.5 -13q43 0 66.5 36t36.5 105h129q-23 -274 -230 -274q-59 0 -98 21.5t-84 62.5q-33 29 -53.5 42t-46.5 13q-43 0 -65.5 -34.5t-35.5 -106.5h-129z" />
<glyph unicode="&#x2000;" horiz-adv-x="924" />
<glyph unicode="&#x2001;" horiz-adv-x="1849" />
<glyph unicode="&#x2002;" horiz-adv-x="924" />
<glyph unicode="&#x2003;" horiz-adv-x="1849" />
<glyph unicode="&#x2004;" horiz-adv-x="616" />
<glyph unicode="&#x2005;" horiz-adv-x="462" />
<glyph unicode="&#x2006;" horiz-adv-x="308" />
<glyph unicode="&#x2007;" horiz-adv-x="308" />
<glyph unicode="&#x2008;" horiz-adv-x="231" />
<glyph unicode="&#x2009;" horiz-adv-x="369" />
<glyph unicode="&#x200a;" horiz-adv-x="102" />
<glyph unicode="&#x2010;" horiz-adv-x="1044" d="M184 451v170h676v-170h-676z" />
<glyph unicode="&#x2011;" horiz-adv-x="1044" d="M184 451v170h676v-170h-676z" />
<glyph unicode="&#x2012;" horiz-adv-x="1044" d="M184 451v170h676v-170h-676z" />
<glyph unicode="&#x2013;" horiz-adv-x="1359" d="M168 459v153h1024v-153h-1024z" />
<glyph unicode="&#x2014;" horiz-adv-x="2076" d="M168 459v153h1741v-153h-1741z" />
<glyph unicode="&#x2018;" horiz-adv-x="522" d="M109 1087q0 109 55 201t168 146l86 -80q-80 -27 -133.5 -84.5t-67.5 -124.5l8 -4q18 14 58 14q43 0 77.5 -34t34.5 -95q0 -55 -39 -96t-94 -41q-72 0 -112.5 55t-40.5 143z" />
<glyph unicode="&#x2019;" horiz-adv-x="522" d="M113 969q80 27 133 84t67 125l-8 4q-18 -14 -57 -15q-43 0 -78 34t-35 95q0 55 39 96.5t94 41.5q72 0 113 -55.5t41 -143.5q0 -109 -55.5 -201t-167.5 -145z" />
<glyph unicode="&#x201a;" horiz-adv-x="542" d="M113 -219q80 27 133 84t67 125l-8 4q-18 -14 -57 -14q-43 0 -78 33.5t-35 95.5q0 55 39 96t94 41q72 0 113 -55.5t41 -143.5q0 -109 -55.5 -201t-167.5 -145z" />
<glyph unicode="&#x201c;" horiz-adv-x="907" d="M109 1087q0 109 55 201t168 146l86 -80q-80 -27 -133.5 -84.5t-67.5 -124.5l8 -4q18 14 58 14q43 0 77.5 -34t34.5 -95q0 -55 -39 -96t-94 -41q-72 0 -112.5 55t-40.5 143zM494 1087q0 109 55 201t168 146l86 -80q-80 -27 -133.5 -84.5t-67.5 -124.5l8 -4q18 14 58 14 q43 0 77.5 -34t34.5 -95q0 -55 -39 -96t-94 -41q-72 0 -112.5 55t-40.5 143z" />
<glyph unicode="&#x201d;" horiz-adv-x="907" d="M113 969q80 27 133 84t67 125l-8 4q-18 -14 -57 -15q-43 0 -78 34t-35 95q0 55 39 96.5t94 41.5q72 0 113 -55.5t41 -143.5q0 -109 -55.5 -201t-167.5 -145zM498 969q80 27 133 84t67 125l-8 4q-18 -14 -57 -15q-43 0 -78 34t-35 95q0 55 39 96.5t94 41.5q72 0 113 -55.5 t41 -143.5q0 -109 -55.5 -201t-167.5 -145z" />
<glyph unicode="&#x201e;" horiz-adv-x="927" d="M113 -219q80 27 133 84t67 125l-8 4q-18 -14 -57 -14q-43 0 -78 33.5t-35 95.5q0 55 39 96t94 41q72 0 113 -55.5t41 -143.5q0 -109 -55.5 -201t-167.5 -145zM498 -219q80 27 133 84t67 125l-8 4q-18 -14 -57 -14q-43 0 -78 33.5t-35 95.5q0 55 39 96t94 41 q72 0 113 -55.5t41 -143.5q0 -109 -55.5 -201t-167.5 -145z" />
<glyph unicode="&#x2022;" horiz-adv-x="880" d="M184 690q0 106 73 177t183 71q113 0 184.5 -69.5t71.5 -178.5t-71.5 -178.5t-184.5 -69.5q-111 0 -183.5 71t-72.5 177z" />
<glyph unicode="&#x2026;" horiz-adv-x="1761" d="M153 113q0 59 37 96t96 37q60 0 97 -37t37 -96t-37 -96t-97 -37q-59 0 -96 36.5t-37 96.5zM747 113q0 59 37 96t96 37q60 0 97 -37t37 -96t-37 -96t-97 -37q-59 0 -96 36.5t-37 96.5zM1341 113q0 59 37 96t96 37q60 0 97 -37t37 -96t-37 -96t-97 -37q-59 0 -96 36.5 t-37 96.5z" />
<glyph unicode="&#x202f;" horiz-adv-x="369" />
<glyph unicode="&#x2039;" horiz-adv-x="647" d="M104 543l258 401h179l-262 -401l262 -402h-179z" />
<glyph unicode="&#x203a;" horiz-adv-x="647" d="M106 141l263 402l-263 401h179l258 -401l-258 -402h-179z" />
<glyph unicode="&#x205f;" horiz-adv-x="462" />
<glyph unicode="&#x20ac;" horiz-adv-x="1433" d="M127 438v133h160q-4 66 -4 105q0 49 2 72h-158v133h174q43 233 184.5 362t358.5 129q176 0 302 -82t181 -233l-147 -70q-35 115 -121 178.5t-201 63.5q-143 0 -245.5 -92.5t-143.5 -255.5h487l-41 -133h-466q-2 -23 -3 -72q0 -55 7 -105h421l-40 -133h-357 q41 -150 138.5 -232.5t234.5 -82.5q119 0 218 73.5t134 204.5l150 -55q-55 -170 -193.5 -268t-310.5 -98q-213 0 -352.5 120.5t-188.5 337.5h-180z" />
<glyph unicode="&#x2122;" horiz-adv-x="1716" d="M111 1241v111h555v-111h-205v-565h-144v565h-206zM795 676v676h180l139 -369l47 -131h4l45 131l142 369h178v-676h-141v323l14 179h-2l-19 -56l-168 -446h-102l-170 446l-18 56h-2l14 -179v-323h-141z" />
<glyph unicode="&#x25fc;" horiz-adv-x="1024" d="M0 0v1024h1024v-1024h-1024z" />
</font>
</defs>
</svg>
