<?xml version="1.0" standalone="no"?>
<!DOCTYPE svg PUBLIC "-//W3C//DTD SVG 1.1//EN" "http://www.w3.org/Graphics/SVG/1.1/DTD/svg11.dtd" >
<svg xmlns="http://www.w3.org/2000/svg" xmlns:xlink="http://www.w3.org/1999/xlink" version="1.1">
<metadata></metadata>
<defs>
<font id="work_sansmedium" horiz-adv-x="1267" >
<font-face units-per-em="2048" ascent="1638" descent="-410" />
<missing-glyph horiz-adv-x="665" />
<glyph unicode="&#xfb01;" horiz-adv-x="1378" d="M55 852v172h193v147q0 156 94 242t264 86q61 0 112.5 -13t80.5 -36l-41 -160q-47 31 -117 31q-180 0 -180 -166v-131h332v-172h-326v-852h-219v852h-193zM952 1333q0 66 39 100.5t109 34.5t107.5 -34.5t37.5 -100.5t-38 -101.5t-107 -35.5q-70 0 -109 36t-39 101zM989 0 v1024h219v-1024h-219z" />
<glyph unicode="&#xfb02;" horiz-adv-x="1458" d="M55 852v172h193v147q0 156 94 242t264 86q61 0 112.5 -13t80.5 -36l-41 -160q-47 31 -117 31q-180 0 -180 -166v-131h332v-172h-326v-852h-219v852h-193zM983 268v1217h219v-1186q0 -76 22.5 -105.5t83.5 -29.5q39 0 67 5t69 21l-25 -176q-70 -35 -170 -34 q-137 0 -201.5 69.5t-64.5 218.5z" />
<glyph horiz-adv-x="0" />
<glyph horiz-adv-x="682" />
<glyph unicode=" "  horiz-adv-x="665" />
<glyph unicode="&#x09;" horiz-adv-x="665" />
<glyph unicode="&#xa0;" horiz-adv-x="665" />
<glyph unicode="!" horiz-adv-x="575" d="M135 125q0 66 41 105.5t111 39.5q69 0 111 -40t42 -105q0 -66 -41 -104.5t-112 -38.5q-70 0 -111 38.5t-41 104.5zM172 811v541h229v-541l-28 -381h-172z" />
<glyph unicode="&#x22;" horiz-adv-x="851" d="M156 881v524h215l-56 -524h-159zM521 881v524h215l-56 -524h-159z" />
<glyph unicode="#" horiz-adv-x="1341" d="M45 367v149h266l54 328h-232v149h258l58 359h169l-59 -359h318l59 359h168l-60 -359h250v-149h-274l-53 -328h237v-149h-262l-61 -367h-168l59 367h-317l-60 -367h-170l62 367h-242zM479 516h320l53 328h-317z" />
<glyph unicode="$" horiz-adv-x="1273" d="M84 324l158 114q29 -104 119 -174.5t210 -91.5v426q-135 29 -226 63.5t-151.5 105.5t-60.5 187q0 158 118 267.5t320 128.5v198h158v-200q158 -12 260.5 -78t179.5 -193l-145 -133q-53 111 -121.5 166t-173.5 68v-433q135 -29 226.5 -64.5t151.5 -108t60 -191.5 q0 -160 -119.5 -261.5t-318.5 -117.5v-199h-158v199q-362 31 -487 322zM338 969q0 -80 60.5 -122t172.5 -69v400q-115 -12 -174 -66.5t-59 -142.5zM729 170q236 23 236 197q0 82 -60.5 125t-175.5 71v-393z" />
<glyph unicode="%" horiz-adv-x="1802" d="M76 995q0 170 93 273.5t249 103.5q155 0 248.5 -103.5t93.5 -273.5t-93.5 -273.5t-248.5 -103.5q-156 0 -249 103.5t-93 273.5zM256 995q0 -102 42 -158.5t120 -56.5q80 0 122 56.5t42 158.5q0 104 -42 160.5t-122 56.5q-78 0 -120 -56t-42 -161zM365 0l884 1352h189 l-883 -1352h-190zM1042 356q0 170 93.5 273.5t248.5 103.5q156 0 249 -103.5t93 -273.5t-93 -273t-249 -103t-249 103t-93 273zM1223 356q0 -104 42 -160.5t119 -56.5q80 0 122 56.5t42 160.5q0 102 -42 158.5t-122 56.5q-77 0 -119 -56t-42 -159z" />
<glyph unicode="&#x26;" horiz-adv-x="1290" d="M84 336q0 121 72.5 220t238.5 179q-86 109 -118.5 178.5t-32.5 145.5q0 80 40 152.5t117.5 116.5t188.5 44q152 0 246 -74.5t94 -216.5q0 -119 -59.5 -207t-215.5 -169q84 -104 125 -152q113 -135 158 -186q74 133 74 303l-2 47l161 -12q4 -125 -28.5 -242t-102.5 -209 q74 -72 127.5 -95.5t126.5 -19.5l-39 -159q-92 0 -161.5 29.5t-165.5 117.5q-76 -70 -177.5 -108.5t-222.5 -38.5q-129 0 -230 45t-157.5 125.5t-56.5 185.5zM281 350q0 -90 73.5 -149.5t180.5 -59.5q164 0 288 95q-94 100 -172 194l-30 35l-129 153q-125 -76 -168 -135 t-43 -133zM440 1057q0 -51 23.5 -98.5t101.5 -145.5q111 66 145.5 125t34.5 135q0 66 -39.5 99.5t-115.5 33.5q-72 0 -111 -42t-39 -107z" />
<glyph unicode="'" horiz-adv-x="489" d="M156 881v524h215l-56 -524h-159z" />
<glyph unicode="(" horiz-adv-x="741" d="M129 569q0 297 113.5 539t337.5 422l114 -115q-193 -176 -273.5 -370.5t-80.5 -475.5t81 -474t273 -369l-114 -115q-223 180 -337 421.5t-114 536.5z" />
<glyph unicode=")" horiz-adv-x="741" d="M47 -274q193 174 273.5 368.5t80.5 474.5q0 281 -80.5 476.5t-273.5 369.5l117 115q221 -180 334.5 -422t113.5 -539q0 -295 -113.5 -536.5t-334.5 -421.5z" />
<glyph unicode="*" horiz-adv-x="1181" d="M100 1077l50 158l245 -80l135 -65l-22 147l-2 258h170l-2 -258l-23 -147l135 65l246 80l49 -158l-243 -78l-150 -26l107 -107l151 -209l-135 -98l-152 209l-69 133l-70 -133l-149 -209l-135 98l151 209l105 107l-148 26z" />
<glyph unicode="+" horiz-adv-x="1236" d="M115 563v182h409v426h191v-426h407v-182h-407v-428h-191v428h-409z" />
<glyph unicode="," horiz-adv-x="559" d="M104 -217q84 29 141.5 85t76.5 126l-11 4q-16 -16 -57 -16q-51 0 -91 37.5t-40 105.5q0 66 45 108.5t111 42.5q81 0 127.5 -60t46.5 -157q0 -117 -61.5 -214t-180.5 -152z" />
<glyph unicode="-" horiz-adv-x="1054" d="M178 438v203h699v-203h-699z" />
<glyph unicode="." horiz-adv-x="559" d="M125 129q0 68 42 107.5t114 39.5q69 0 111 -39.5t42 -107.5t-42 -108.5t-111 -40.5q-70 0 -113 40.5t-43 108.5z" />
<glyph unicode="/" horiz-adv-x="915" d="M49 -143l610 1628h205l-610 -1628h-205z" />
<glyph unicode="0" horiz-adv-x="1286" d="M123 676q0 342 132 519t388 177t389 -177t133 -519t-133 -519t-389 -177t-388 177t-132 519zM346 676q0 -510 297 -510q148 0 223.5 128t75.5 382t-75.5 382t-223.5 128q-297 0 -297 -510z" />
<glyph unicode="1" horiz-adv-x="856" d="M70 1112q53 6 138 45t160.5 92.5t110.5 102.5h185v-1352h-215v999q0 70 2 109q-70 -68 -159 -117t-181 -69z" />
<glyph unicode="2" horiz-adv-x="1202" d="M100 952q20 195 149.5 307.5t340.5 112.5q145 0 251.5 -56t162 -152.5t55.5 -217.5q0 -195 -144.5 -371t-480.5 -391v-4q102 8 223 8h426v-188h-940v162q266 186 414 316t212.5 237.5t64.5 222.5q0 109 -69 176.5t-187 67.5q-127 0 -202 -84t-85 -234z" />
<glyph unicode="3" horiz-adv-x="1200" d="M94 307l201 96q31 -119 98.5 -177t194.5 -58q123 0 192.5 60.5t69.5 160.5q0 111 -66.5 157t-212.5 46h-61v174h55q254 0 254 209q0 102 -58.5 155.5t-164.5 53.5q-109 0 -173.5 -52.5t-82.5 -148.5l-201 82q43 147 167 227t294 80q139 0 238.5 -48t150.5 -130t51 -182 q0 -96 -37.5 -171t-96 -116t-120.5 -41v-4q78 0 142.5 -39t103.5 -110.5t39 -165.5q0 -111 -61.5 -199t-173 -137t-256.5 -49q-367 0 -486 327z" />
<glyph unicode="4" horiz-adv-x="1273" d="M84 338v133l604 881h268v-844h230v-170h-230v-338h-206v338h-666zM303 508h447v463l8 219h-4q-49 -104 -131 -225z" />
<glyph unicode="5" horiz-adv-x="1191" d="M109 276l204 113q31 -111 93.5 -167t187.5 -56t197.5 67.5t72.5 190.5q0 127 -67.5 195.5t-194.5 68.5q-193 0 -274 -117l-183 13l84 768h785v-189h-611l-47 -375l-4 -28h2q98 109 299 108q129 0 225.5 -54t148.5 -150.5t52 -223.5q0 -219 -131 -339.5t-350 -120.5 q-184 0 -302 73.5t-187 222.5z" />
<glyph unicode="6" horiz-adv-x="1263" d="M133 676q0 223 70.5 380.5t194.5 236.5t282 79q166 0 274.5 -68.5t167.5 -220.5l-192 -92q-59 190 -262 191q-98 0 -174 -67.5t-118 -186.5t-42 -266v-37h8q33 111 133 169t223 58q133 0 235.5 -53.5t159 -150.5t56.5 -228q0 -203 -129 -321.5t-352 -118.5 q-256 0 -395.5 187t-139.5 509zM403 422q0 -115 72 -184.5t193 -69.5q125 0 194.5 66.5t69.5 187.5q0 117 -69.5 182.5t-194.5 65.5q-119 0 -192 -69t-73 -179z" />
<glyph unicode="7" horiz-adv-x="1181" d="M84 1161v191h1030v-183q-250 -256 -360.5 -540.5t-110.5 -628.5h-223q0 326 116.5 618.5t350.5 542.5h-803z" />
<glyph unicode="8" d="M125 362q0 123 67.5 211.5t188.5 131.5v2q-94 39 -147.5 117.5t-53.5 183.5q0 168 123 265t332 97q207 0 329.5 -98t122.5 -264q0 -104 -52 -182t-146 -119v-2q121 -45 187.5 -131.5t66.5 -211.5q0 -176 -137.5 -279t-370.5 -103t-371.5 103t-138.5 279zM346 387 q0 -104 78 -163.5t211 -59.5t210 59.5t77 163.5t-78 164.5t-209 60.5t-210 -60t-79 -165zM399 987q0 -92 63.5 -144t172.5 -52q106 0 170.5 52t64.5 144t-63.5 145.5t-171.5 53.5q-109 0 -172.5 -52.5t-63.5 -146.5z" />
<glyph unicode="9" horiz-adv-x="1271" d="M125 928q0 207 130 325.5t353 118.5q256 0 395.5 -187.5t139.5 -510.5q0 -344 -138.5 -519t-398.5 -175q-184 0 -300 75.5t-177 227.5l207 96q33 -106 90 -158.5t180 -52.5q180 0 258 136t78 396v23h-8q-29 -119 -130.5 -175t-230.5 -56q-131 0 -232 53t-158.5 152.5 t-57.5 230.5zM344 926q0 -117 69.5 -182.5t194.5 -65.5q119 0 191.5 68.5t72.5 179.5q0 115 -72.5 184.5t-191.5 69.5q-125 0 -194.5 -66.5t-69.5 -187.5z" />
<glyph unicode=":" horiz-adv-x="610" d="M150 129q0 68 42 107.5t114 39.5q69 0 111 -39.5t42 -107.5t-42 -108.5t-111 -40.5q-70 0 -113 40.5t-43 108.5zM150 897q0 68 42 107.5t114 39.5q69 0 111 -39.5t42 -107.5t-42 -108.5t-111 -40.5q-70 0 -113 40.5t-43 108.5z" />
<glyph unicode=";" horiz-adv-x="610" d="M133 -217q84 29 141.5 85t75.5 126l-10 4q-16 -16 -57 -16q-51 0 -91 37.5t-40 105.5q0 66 45 108.5t110 42.5q82 0 128 -60t46 -157q0 -117 -61.5 -214t-179.5 -152zM160 895q0 70 41 109.5t112 39.5q72 0 114 -39.5t42 -109.5q0 -68 -42 -107.5t-114 -39.5 q-69 0 -111 39.5t-42 107.5z" />
<glyph unicode="&#x3c;" horiz-adv-x="1236" d="M139 500v223l985 457v-217l-823 -351l823 -350v-219z" />
<glyph unicode="=" horiz-adv-x="1236" d="M131 330v180h975v-180h-975zM131 750v180h975v-180h-975z" />
<glyph unicode="&#x3e;" horiz-adv-x="1236" d="M113 43v219l823 350l-823 351v217l985 -457v-223z" />
<glyph unicode="?" horiz-adv-x="1150" d="M76 1020q33 160 163 256t341 96q213 0 343 -93t130 -261q0 -174 -106.5 -268.5t-280.5 -112.5l-7 -207h-208l-5 309q201 25 287 83.5t86 164.5q0 90 -64.5 141.5t-189.5 51.5q-123 0 -198.5 -68t-87.5 -188zM401 127q0 66 42 105.5t112 39.5t111 -39.5t41 -105.5 q0 -68 -41 -106.5t-111 -38.5q-72 0 -113 38.5t-41 106.5z" />
<glyph unicode="@" horiz-adv-x="1992" d="M125 457q0 264 112.5 466.5t318.5 315.5t474 113q270 0 456.5 -105.5t281 -290t94.5 -424.5q0 -168 -50.5 -289.5t-139.5 -185t-204 -63.5q-104 0 -165.5 51t-85.5 131q-55 -84 -143.5 -129t-205.5 -45q-98 0 -176 50t-123 141.5t-45 214.5q0 170 66.5 293.5t174 188 t232.5 64.5q219 0 285 -172l41 158h150l-84 -623q-4 -37 -5 -53q0 -139 125 -139q102 0 158.5 103.5t56.5 303.5q0 209 -79.5 364t-235.5 240t-379 85q-231 0 -402 -93.5t-263.5 -265.5t-92.5 -405q0 -219 93.5 -383t253 -250t356.5 -86q158 0 253 32.5t181 94.5l76 -103 q-109 -76 -220.5 -115.5t-291.5 -39.5q-250 0 -442.5 104.5t-299 297t-106.5 448.5zM717 426q0 -127 57 -197.5t162 -70.5q104 0 184 66.5t94 189.5l17 121q4 37 4 55q0 98 -52.5 154.5t-162.5 56.5q-137 0 -220 -99.5t-83 -275.5z" />
<glyph unicode="A" horiz-adv-x="1361" d="M41 0l510 1352h262l510 -1352h-231l-127 354h-570l-129 -354h-225zM459 532h440l-156 435l-61 194h-6l-58 -190z" />
<glyph unicode="B" horiz-adv-x="1355" d="M201 0v1352h532q238 0 353.5 -96.5t115.5 -274.5q0 -111 -63.5 -192.5t-177.5 -102.5v-2q127 -20 201.5 -106t74.5 -203q0 -176 -129 -275.5t-367 -99.5h-540zM416 182h336q127 0 192.5 52.5t65.5 150.5t-65.5 150.5t-192.5 52.5h-336v-406zM416 770h301q258 0 258 199 q0 198 -255 198h-3h-301v-397z" />
<glyph unicode="C" horiz-adv-x="1400" d="M125 676q0 213 78 370.5t221 241.5t336 84q203 0 341 -84t199 -248l-206 -92q-41 121 -119 177.5t-203 56.5q-190 0 -304 -134.5t-114 -371.5q0 -240 108.5 -373t301.5 -133q131 0 220 65.5t128 192.5l209 -70q-61 -182 -209.5 -280t-349.5 -98q-195 0 -338 83.5 t-221 241.5t-78 371z" />
<glyph unicode="D" horiz-adv-x="1474" d="M201 0v1352h477q319 0 495.5 -176.5t176.5 -499.5q0 -324 -176.5 -500t-495.5 -176h-477zM420 186h258q213 0 327.5 128t114.5 362q0 233 -114.5 361t-327.5 128h-258v-979z" />
<glyph unicode="E" horiz-adv-x="1302" d="M201 0v1352h979v-189h-760v-389h594v-184h-594v-402h788v-188h-1007z" />
<glyph unicode="F" horiz-adv-x="1251" d="M201 0v1352h977v-189h-758v-391h594v-190h-594v-582h-219z" />
<glyph unicode="G" horiz-adv-x="1482" d="M125 676q0 213 80 369.5t225 241.5t338 85q209 0 344 -77.5t213 -241.5l-201 -97q-39 111 -131 168.5t-221 57.5q-193 0 -305.5 -133.5t-112.5 -372.5q0 -244 107.5 -376t314.5 -132q162 0 262.5 80t100.5 231v39h-414v180h608v-698h-162l-6 172q-59 -92 -163.5 -142 t-249.5 -50q-188 0 -329.5 83.5t-219.5 240.5t-78 372z" />
<glyph unicode="H" horiz-adv-x="1507" d="M201 0v1352h219v-574h667v574h222v-1352h-222v590h-667v-590h-219z" />
<glyph unicode="I" horiz-adv-x="620" d="M201 0v1352h219v-1352h-219z" />
<glyph unicode="J" horiz-adv-x="1191" d="M80 358q0 63 10 115l209 39q-8 -78 -8 -104q0 -123 55 -180.5t172 -57.5q150 0 211.5 85t61.5 265v832h219v-873q0 -236 -130 -367.5t-362 -131.5q-213 0 -325.5 101t-112.5 277z" />
<glyph unicode="K" horiz-adv-x="1366" d="M201 0v1352h219v-672l620 672h269l-512 -553l524 -799h-258l-424 651l-219 -235v-416h-219z" />
<glyph unicode="L" horiz-adv-x="1226" d="M201 0v1352h219v-1164h745v-188h-964z" />
<glyph unicode="M" horiz-adv-x="1783" d="M201 0v1352h325l273 -783l94 -321h4l96 321l271 783h319v-1352h-201v782l15 373h-2l-412 -1155h-182l-412 1155h-2l16 -373v-782h-202z" />
<glyph unicode="N" horiz-adv-x="1507" d="M201 0v1352h258l520 -850l133 -252h2l-8 229v873h203v-1352h-260l-523 852l-131 250h-2l8 -230v-872h-200z" />
<glyph unicode="O" horiz-adv-x="1525" d="M125 676q0 213 78 370.5t221 241.5t338 84q194 0 338.5 -84t222.5 -241.5t78 -370.5t-78 -371t-222.5 -241.5t-338.5 -83.5q-195 0 -338 83.5t-221 241.5t-78 371zM354 676q0 -240 108.5 -373t299.5 -133q193 0 301 133t108 373t-108.5 373t-300.5 133 q-191 0 -299.5 -133.5t-108.5 -372.5z" />
<glyph unicode="P" horiz-adv-x="1284" d="M201 0v1352h520q219 0 347 -113t128 -309q0 -197 -128 -308.5t-347 -111.5h-301v-510h-219zM420 696h266q143 0 213 58.5t70 175.5q0 235 -281 235h-2h-266v-469z" />
<glyph unicode="Q" horiz-adv-x="1525" d="M125 676q0 213 78 370.5t221 241.5t338 84t339 -84t222 -241.5t78 -370.5q0 -299 -148.5 -482.5t-406.5 -209.5q10 -111 72.5 -151t171.5 -40q77 0 140.5 20.5t102.5 57.5l64 -184q-49 -43 -136 -68t-178 -25q-180 0 -291.5 95.5t-117.5 294.5q-256 29 -402.5 212 t-146.5 480zM354 676q0 -240 108.5 -373t299.5 -133q193 0 301 133t108 373t-108.5 373t-300.5 133q-190 0 -299 -133.5t-109 -372.5z" />
<glyph unicode="R" horiz-adv-x="1376" d="M201 0v1352h551q219 0 346 -107.5t127 -298.5q0 -145 -75 -242.5t-212 -138.5l367 -565h-252l-344 541h-291v-541h-217zM418 723h315q133 0 198.5 54t65.5 167t-65.5 167t-198.5 54h-315v-442z" />
<glyph unicode="S" horiz-adv-x="1314" d="M88 254l154 154q66 -123 169 -180.5t257 -57.5q145 0 228 50t83 142q0 74 -75 119t-261 80t-296.5 86t-161 127t-50.5 184q0 115 63.5 209.5t183.5 149.5t280 55q186 0 318 -67.5t222 -206.5l-166 -150q-57 123 -143 178.5t-229 55.5q-141 0 -219 -56.5t-78 -144.5 q0 -82 75.5 -130t270.5 -83q182 -33 289.5 -83t156.5 -125t49 -185q0 -119 -67.5 -209t-189.5 -138t-281 -48q-412 0 -582 274z" />
<glyph unicode="T" d="M61 1163v189h1145v-189h-463v-1163h-219v1163h-463z" />
<glyph unicode="U" horiz-adv-x="1470" d="M182 518v834h221v-807q0 -193 81 -284t251 -91t251 91t81 284v807h221v-834q0 -266 -141 -402t-412 -136q-270 0 -411.5 136t-141.5 402z" />
<glyph unicode="V" horiz-adv-x="1349" d="M45 1352h234l315 -899l82 -269l82 267l315 901h232l-502 -1352h-256z" />
<glyph unicode="W" horiz-adv-x="1990" d="M57 1352h238l295 -1178l297 1178h225l299 -1180l297 1180h225l-395 -1352h-258l-215 811l-68 311h-2l-67 -311l-213 -811h-260z" />
<glyph unicode="X" horiz-adv-x="1269" d="M43 0l469 686l-432 666h260l311 -502l312 502h237l-436 -658l455 -694h-261l-331 526l-332 -526h-252z" />
<glyph unicode="Y" horiz-adv-x="1222" d="M20 1352h244l242 -434l106 -203l107 203l239 434h246l-483 -834v-518h-219v518z" />
<glyph unicode="Z" horiz-adv-x="1292" d="M102 0v178l818 987h-799v187h1048v-178l-817 -988h842v-186h-1092z" />
<glyph unicode="[" horiz-adv-x="739" d="M176 -344v1829h500v-174h-301v-1481h301v-174h-500z" />
<glyph unicode="\" horiz-adv-x="915" d="M51 1485h205l610 -1628h-204z" />
<glyph unicode="]" horiz-adv-x="739" d="M63 -170h302v1481h-302v174h500v-1829h-500v174z" />
<glyph unicode="^" horiz-adv-x="1179" d="M53 727l439 764h196l436 -764h-206l-328 602l-328 -602h-209z" />
<glyph unicode="_" horiz-adv-x="1103" d="M0 -180h1104v-191h-1104v191z" />
<glyph unicode="`" horiz-adv-x="1024" d="M242 1528h221l149 -344h-168z" />
<glyph unicode="a" horiz-adv-x="1167" d="M100 248q0 121 100.5 204t299.5 117l260 45v56q0 94 -55.5 148t-153.5 54q-203 0 -264 -184l-170 90q37 123 150.5 194.5t279.5 71.5q199 0 315.5 -92t116.5 -270v-463q0 -39 17.5 -57.5t58.5 -18.5q44 1 75 9l-14 -148q-53 -24 -121 -24h-6q-88 0 -140 34.5t-69 116.5 q-47 -72 -139 -111.5t-207 -39.5q-150 0 -242 69.5t-92 198.5zM328 262q0 -57 40 -87t113 -30q111 0 195 53.5t84 141.5v123l-223 -45q-106 -20 -157.5 -57t-51.5 -99z" />
<glyph unicode="b" horiz-adv-x="1288" d="M170 0v1485h219v-625q47 86 134 135t198 49q211 0 332 -142t121 -392t-121 -390t-332 -140q-121 0 -212 57t-136 153l-11 -190h-192zM389 473q8 -150 83 -233.5t200 -83.5q133 0 207.5 94t74.5 262t-74.5 261t-207.5 93q-125 0 -200 -84t-83 -231v-78z" />
<glyph unicode="c" horiz-adv-x="1159" d="M111 512q0 250 135 391t375 141h2q333 0 442 -286l-205 -82q-53 194 -237 194h-2q-137 0 -213 -94t-76 -266t75.5 -264t213.5 -92q104 0 167.5 51t83.5 147l201 -67q-45 -143 -159.5 -224t-288.5 -81q-242 0 -378 141t-136 391z" />
<glyph unicode="d" horiz-adv-x="1288" d="M115 510q0 250 121.5 392t332.5 142q113 0 199 -50t131 -136v627h219v-1485h-192l-13 182q-45 -92 -136 -147t-208 -55q-211 0 -332.5 140t-121.5 390zM336 512q0 -168 74.5 -262t207.5 -94q130 0 205.5 92t75.5 252v24q0 160 -75.5 251t-205.5 91q-133 0 -207.5 -93 t-74.5 -261z" />
<glyph unicode="e" horiz-adv-x="1189" d="M111 512q0 252 131 392t368 140q225 0 350 -137t125 -364q0 -60 -8 -113h-749q18 -135 96 -205.5t201 -70.5q100 0 166.5 35.5t91.5 103.5l182 -76q-115 -237 -437 -237h-3q-242 0 -378 141t-136 391zM328 598h553q-16 129 -87 200.5t-184 71.5q-118 0 -191 -69.5 t-91 -202.5z" />
<glyph unicode="f" horiz-adv-x="819" d="M55 852v172h193v147q0 156 94 242t264 86q61 0 112.5 -13t80.5 -36l-41 -160q-47 31 -117 31q-180 0 -180 -166v-131h332v-172h-326v-852h-219v852h-193z" />
<glyph unicode="g" horiz-adv-x="1134" d="M80 -178q0 70 48 122t134 74q-66 31 -104.5 79t-38.5 116q0 150 160 205q-78 45 -118 116.5t-40 163.5q0 102 55 181t156.5 122t232.5 43q113 0 207 -32q29 113 104 171q72 56 189 56h8l37 -170h-14q-88 0 -144 -25q-61 -26 -84 -79q68 -47 105 -115t37 -152 q0 -158 -122 -252t-323 -94q-94 0 -170 19q-51 -12 -74.5 -40t-23.5 -73q0 -47 34 -72.5t93 -25.5h342q156 0 242 -70t86 -192q0 -104 -69 -180t-188.5 -117t-269.5 -41q-244 0 -365.5 71.5t-121.5 190.5zM266 -131q0 -70 81 -107.5t241 -37.5q149 0 233 43t84 106 q0 51 -41 77.5t-137 26.5h-276q-92 0 -138.5 -28.5t-46.5 -79.5zM344 698q0 -86 63.5 -140t157.5 -54q96 0 158.5 54t62.5 140t-62 139.5t-159 53.5q-94 0 -157.5 -54.5t-63.5 -138.5z" />
<glyph unicode="h" d="M170 0v1485h219v-625q51 94 136 139t196 45q170 0 277.5 -98t107.5 -282v-664h-219v594q0 270 -219 270q-115 0 -197 -79.5t-82 -243.5v-541h-219z" />
<glyph unicode="i" horiz-adv-x="561" d="M133 1333q0 66 39 100.5t109 34.5t107.5 -34.5t37.5 -100.5t-38 -101.5t-107 -35.5q-70 0 -109 36t-39 101zM170 0v1024h219v-1024h-219z" />
<glyph unicode="j" horiz-adv-x="559" d="M-172 -373l39 176q70 -57 158 -57q70 0 107.5 43t37.5 141v1094h219v-1114q0 -182 -95 -266t-241 -84q-133 0 -225 67zM133 1333q0 61 40 98t108 37q65 0 105 -36.5t40 -98.5q0 -61 -40 -99t-105 -38q-68 0 -108 38t-40 99z" />
<glyph unicode="k" horiz-adv-x="1193" d="M170 0v1485h219v-963l490 502h258l-392 -401l416 -623h-254l-315 481l-203 -209v-272h-219z" />
<glyph unicode="l" horiz-adv-x="638" d="M164 268v1217h219v-1186q0 -76 22.5 -105.5t83.5 -29.5q39 0 67 5t69 21l-25 -176q-68 -34 -164 -34h-6q-137 0 -201.5 69.5t-64.5 218.5z" />
<glyph unicode="m" horiz-adv-x="1943" d="M170 0v1024h195l10 -170q51 94 139 142t193 48q115 0 208 -52t138 -152q47 100 144 152t208 52q102 0 188 -41.5t137.5 -128t51.5 -210.5v-664h-219v629q0 121 -57.5 178t-153.5 57q-113 0 -190 -82t-77 -225v-557h-219v629q0 121 -57 178t-154 57q-66 0 -127 -33.5 t-100 -105.5t-39 -180v-545h-219z" />
<glyph unicode="n" d="M170 0v1024h195l10 -170q51 96 141 143t205 47q170 0 277.5 -98t107.5 -282v-664h-219v594q0 270 -219 270q-115 0 -197 -78.5t-82 -242.5v-543h-219z" />
<glyph unicode="o" horiz-adv-x="1241" d="M111 512q0 250 135 391t375 141q239 0 374 -141t135 -391t-135 -391t-374 -141q-240 0 -375 141t-135 391zM332 512q0 -174 74.5 -267t214.5 -93q139 0 214.5 94t75.5 266t-75.5 266t-214.5 94q-140 0 -214.5 -93t-74.5 -267z" />
<glyph unicode="p" horiz-adv-x="1288" d="M170 -430v1454h192l11 -190q45 96 136 153t212 57q211 0 332 -140t121 -390t-121 -392t-332 -142q-111 0 -198 49t-134 135v-594h-219zM389 473q8 -147 83 -231t200 -84q133 0 207.5 93t74.5 261t-74.5 262t-207.5 94q-125 0 -200 -84t-83 -233v-78z" />
<glyph unicode="q" horiz-adv-x="1290" d="M117 514q0 250 120.5 390t331.5 140q121 0 212 -56t137 -152l10 188h192v-1454h-219v596q-47 -86 -133 -136t-197 -50q-211 0 -332.5 142t-121.5 392zM336 512q0 -168 74.5 -261t207.5 -93q130 0 206.5 91t76.5 251v24q0 160 -76.5 252t-206.5 92q-133 0 -207.5 -94 t-74.5 -262z" />
<glyph unicode="r" horiz-adv-x="847" d="M170 0v1024h186l19 -184q86 204 321 204h2q72 0 113 -20l-35 -201q-47 27 -129 27q-66 0 -124 -35t-96 -104.5t-38 -167.5v-543h-219z" />
<glyph unicode="s" horiz-adv-x="1083" d="M84 195l147 127q39 -88 121 -129t197 -41q104 0 161.5 33.5t57.5 88.5q0 49 -53 79t-185 57q-227 43 -319 114.5t-92 202.5q0 84 51 156.5t148.5 116.5t230.5 44q170 0 272.5 -56t157.5 -175l-156 -115q-37 90 -103.5 132t-168.5 42q-92 0 -152.5 -37.5t-60.5 -86.5 q0 -55 54 -88t198 -60q217 -39 307 -110.5t90 -200.5q0 -137 -118.5 -223t-327.5 -86q-156 0 -276 53t-181 162z" />
<glyph unicode="t" horiz-adv-x="868" d="M53 852v172h195v240l219 61v-301h358v-172h-358v-545q0 -74 40 -109.5t109 -35.5q94 0 166 65l52 -159q-49 -41 -120 -64.5t-153 -23.5q-141 0 -226 70.5t-87 219.5v582h-195z" />
<glyph unicode="u" d="M162 350v674h219v-616q0 -135 53 -191.5t158 -56.5q125 0 206 78.5t81 232.5v553h219v-1024h-195l-8 166q-104 -186 -365 -186q-166 0 -267 91t-101 279z" />
<glyph unicode="v" horiz-adv-x="1089" d="M16 1024h242l289 -846l297 846h229l-407 -1024h-240z" />
<glyph unicode="w" horiz-adv-x="1783" d="M59 1024h238l231 -819l256 819h217l254 -819l234 819h237l-342 -1024h-239l-258 774l-246 -774h-240z" />
<glyph unicode="x" horiz-adv-x="1126" d="M45 0l385 516l-364 508h262l245 -371l244 371h252l-367 -502l373 -522h-258l-258 385l-266 -385h-248z" />
<glyph unicode="y" horiz-adv-x="1118" d="M23 -358l63 168q61 -74 168 -74q61 0 103 31.5t75 115.5l45 111l-106 254l-320 776h246l225 -643l60 -193l69 211l213 625h228l-449 -1145q-68 -176 -154 -247.5t-225 -71.5q-80 0 -138 19.5t-103 62.5z" />
<glyph unicode="z" horiz-adv-x="1081" d="M104 0v152l498 577l123 127l-176 -4h-440v172h858v-152l-496 -577l-123 -127l195 4h442v-172h-881z" />
<glyph unicode="{" horiz-adv-x="761" d="M66 485v168q125 0 177 49.5t52 163.5v381q0 145 86 214t285 69l22 -160q-106 0 -154.5 -30.5t-48.5 -96.5v-407q0 -209 -227 -267q227 -53 227 -264v-407q0 -66 48.5 -96.5t154.5 -30.5l-22 -160q-199 0 -285 68.5t-86 214.5v378q0 115 -52.5 164t-176.5 49z" />
<glyph unicode="|" horiz-adv-x="544" d="M176 -344v1829h193v-1829h-193z" />
<glyph unicode="}" horiz-adv-x="761" d="M74 -229q106 0 153 29.5t47 97.5v407q0 211 228 264q-227 57 -228 267v407q0 66 -47 96.5t-153 30.5l22 160q199 0 285 -68.5t86 -214.5v-381q0 -114 52 -163.5t177 -49.5v-168q-125 0 -177 -49t-52 -164v-378q0 -145 -86 -214t-285 -69z" />
<glyph unicode="~" horiz-adv-x="1140" d="M88 481q23 334 287 334q68 0 116 -21.5t111 -62.5q45 -31 76 -46t67 -15q94 0 117 141h191q-11 -164 -82.5 -248t-202.5 -84q-70 0 -121 22.5t-108 63.5q-49 31 -78 45.5t-64 14.5q-96 0 -118 -144h-191z" />
<glyph unicode="&#xa1;" horiz-adv-x="561" d="M129 899q0 66 41 104.5t111 38.5q72 0 112.5 -38.5t40.5 -104.5t-42 -105.5t-111 -39.5q-70 0 -111 40t-41 105zM166 213l29 381h172l28 -381v-541h-229v541z" />
<glyph unicode="&#xa2;" horiz-adv-x="1167" d="M125 512q0 227 111.5 365.5t312.5 162.5v189h151v-187q147 -14 239.5 -88.5t133.5 -195.5l-186 -80q-47 170 -187 201v-736q158 31 201 205l180 -61q-34 -131 -132.5 -211t-248.5 -94v-187h-151v191q-201 25 -312.5 163t-111.5 363zM324 510q0 -154 58 -246t167 -117v730 q-111 -25 -168 -118t-57 -249z" />
<glyph unicode="&#xa3;" horiz-adv-x="1280" d="M92 160q0 80 67.5 132t180.5 52q119 0 217 -49q4 33 4 53q0 53 -16.5 102.5t-52.5 106.5h-336v154h221q-57 76 -80 132t-23 118q0 117 55.5 211t158 147t235.5 53q174 0 280.5 -82t149.5 -250l-182 -92q-31 125 -90.5 184.5t-165.5 59.5q-111 0 -177.5 -58.5 t-66.5 -154.5q0 -53 23.5 -105.5t87.5 -144.5l14 -18h389v-154h-301q35 -86 35 -178q0 -88 -33 -162q57 -37 104.5 -56.5t104.5 -19.5q84 0 121 46t37 147l155 -6q9 -162 -65 -255t-213 -93q-86 0 -159 30.5t-159 87.5q-113 -119 -288 -118q-104 0 -168 49t-64 131zM250 160 q0 -31 24.5 -47.5t67.5 -16.5q105 0 164 72q-94 51 -166 51q-90 0 -90 -59z" />
<glyph unicode="&#xa4;" horiz-adv-x="1349" d="M123 254l186 180q-68 106 -67 240q0 137 69 241l-188 177l133 133l182 -187q102 63 238 64q137 0 242 -64l176 187l135 -133l-185 -181q63 -104 64 -237q0 -135 -68 -244l189 -176l-135 -133l-183 186q-102 -63 -235 -63t-242 65l-178 -188zM436 674q0 -111 67.5 -182.5 t172.5 -71.5q104 0 170.5 71.5t66.5 182.5t-66.5 181.5t-170.5 70.5t-172 -71t-68 -181z" />
<glyph unicode="&#xa5;" horiz-adv-x="1304" d="M61 1352h242l252 -475l96 -205h4l97 207l252 473h241l-457 -748l101 8h260v-120h-395v-150h395v-115h-395v-227h-201v227h-393v115h393v150h-393v120h256l100 -8z" />
<glyph unicode="&#xa6;" horiz-adv-x="532" d="M170 -344v754h192v-754h-192zM170 731v754h192v-754h-192z" />
<glyph unicode="&#xa7;" horiz-adv-x="1239" d="M59 584q0 92 48.5 164.5t130.5 119.5q-53 68 -54 179q0 92 54.5 166.5t158 116.5t240.5 42q166 0 267.5 -52t172.5 -153l-135 -116q-53 78 -123.5 115.5t-183.5 37.5q-123 0 -190.5 -37t-67.5 -100q0 -80 72.5 -122t263.5 -64q256 -31 364.5 -106t108.5 -216 q0 -94 -48 -164.5t-128 -120.5q53 -72 53 -180q0 -92 -54.5 -164.5t-154.5 -113.5t-233 -41q-162 0 -269.5 51t-181.5 154l139 118q47 -80 121 -117.5t188 -37.5q121 0 186.5 34.5t65.5 98.5q0 78 -73.5 120t-264.5 66q-256 31 -364.5 105.5t-108.5 216.5zM250 608 q0 -69 68.5 -106t248.5 -58q190 -23 295 -65q135 57 135 156q0 70 -70.5 105.5t-248.5 55.5q-190 23 -295 66q-133 -57 -133 -154z" />
<glyph unicode="&#xa8;" horiz-adv-x="1024" d="M176 1305q0 59 37 94t96 35q62 0 98.5 -35t36.5 -94t-36.5 -94t-98.5 -35q-59 0 -96 35.5t-37 93.5zM590 1305q0 59 36 94t97 35t98 -35t37 -94t-37 -94t-98 -35t-97 34.5t-36 94.5z" />
<glyph unicode="&#xa9;" horiz-adv-x="1650" d="M123 676q0 209 87 366.5t245.5 243.5t369.5 86t370 -86t246 -243.5t87 -366.5t-87 -366.5t-246 -243.5t-370 -86t-369.5 86t-245.5 243.5t-87 366.5zM279 676q0 -166 67.5 -291t191.5 -192.5t287 -67.5q164 0 288 67.5t190.5 192.5t66.5 291t-66.5 291t-190.5 192.5 t-288 67.5q-163 0 -287 -67.5t-191.5 -192.5t-67.5 -291zM463 672q0 178 99.5 280.5t271.5 102.5q247 0 333 -205l-143 -70q-25 59 -70 88t-116 29q-96 0 -151.5 -59.5t-55.5 -165.5t55 -166t152 -60q152 0 198 125l135 -59q-43 -111 -124.5 -166t-212.5 -55 q-172 0 -271.5 102.5t-99.5 278.5z" />
<glyph unicode="&#xaa;" horiz-adv-x="817" d="M41 827q0 86 64.5 139.5t205.5 80.5l183 32v27q0 59 -36 92t-100 33q-63 0 -106 -26.5t-66 -92.5l-133 55q20 90 101.5 141.5t212.5 51.5q150 0 225.5 -63.5t75.5 -188.5v-270q0 -63 61 -64q33 0 47 8l-12 -104q-41 -20 -90 -21q-59 0 -98 27t-52 78q-37 -49 -103.5 -77 t-154.5 -28q-106 0 -165.5 44t-59.5 126zM57 381v131h684v-131h-684zM217 852q0 -39 26.5 -55.5t80.5 -16.5q63 0 116.5 35t53.5 90v78l-127 -27q-80 -16 -115 -39.5t-35 -64.5z" />
<glyph unicode="&#xab;" horiz-adv-x="1067" d="M94 543l258 401h215l-258 -401l258 -402h-215zM497 543l258 401h215l-258 -401l258 -402h-215z" />
<glyph unicode="&#xac;" horiz-adv-x="1236" d="M121 563v182h995v-497h-198v315h-797z" />
<glyph unicode="&#xad;" horiz-adv-x="1054" d="M178 438v203h699v-203h-699z" />
<glyph unicode="&#xae;" horiz-adv-x="1650" d="M123 676q0 209 87 366.5t245.5 243.5t369.5 86t370 -86t246 -243.5t87 -366.5t-87 -366.5t-246 -243.5t-370 -86t-369.5 86t-245.5 243.5t-87 366.5zM279 676q0 -166 67.5 -291t191.5 -192.5t287 -67.5q164 0 288 67.5t190.5 192.5t66.5 291t-66.5 291t-190.5 192.5 t-288 67.5t-287.5 -67.5t-191 -192.5t-67.5 -291zM553 299v754h326q125 0 202.5 -66.5t77.5 -177.5q0 -86 -47 -145.5t-131 -81.5l195 -283h-185l-166 268h-114v-268h-158zM711 682h151q137 0 137 123t-137 123h-151v-246z" />
<glyph unicode="&#xaf;" horiz-adv-x="1024" d="M147 1204v160h730v-160h-730z" />
<glyph unicode="&#xb0;" horiz-adv-x="964" d="M115 1022q0 156 102 253t264 97q164 0 266.5 -97t102.5 -253q0 -158 -102.5 -255t-266.5 -97t-265 98t-101 254zM291 1022q0 -84 53 -137.5t137 -53.5t138.5 53.5t54.5 137.5t-54.5 137t-138.5 53q-82 0 -136 -53t-54 -137z" />
<glyph unicode="&#xb1;" horiz-adv-x="1236" d="M115 0v178h1007v-178h-1007zM115 735v180h413v404h183v-404h411v-180h-411v-401h-183v401h-413z" />
<glyph unicode="&#xb2;" horiz-adv-x="763" d="M49 1235q6 127 94 198.5t232 71.5q156 0 236.5 -76.5t80.5 -185.5q0 -86 -64.5 -171t-201.5 -179q-31 -20 -123 -74v-2q92 6 148 6h258v-141h-635v117q111 72 186 127q143 109 195.5 174t52.5 131q0 59 -36 96t-103 37q-72 0 -113 -48t-43 -132z" />
<glyph unicode="&#xb3;" horiz-adv-x="751" d="M41 868l166 70q18 -131 160 -131q66 0 103.5 32.5t37.5 88.5q0 102 -141 102h-50v111h43q63 0 96 28.5t33 81.5q0 55 -31.5 84t-90.5 29q-123 0 -144 -117l-160 56q25 100 108 151t204 51q139 0 217 -60.5t78 -162.5q0 -86 -49.5 -136t-114.5 -54v-5q74 -2 128 -50 t54 -132q0 -106 -87 -170.5t-228 -64.5q-266 0 -332 198z" />
<glyph unicode="&#xb4;" horiz-adv-x="1024" d="M412 1184l149 344h221l-202 -344h-168z" />
<glyph unicode="&#xb5;" horiz-adv-x="1255" d="M160 -430v1454h219v-616q0 -135 54 -191.5t159 -56.5q119 0 194.5 62.5t90.5 174.5v627h219v-1024h-185l-14 174q-98 -195 -354 -194q-94 0 -164 45v-455h-219z" />
<glyph unicode="&#xb6;" horiz-adv-x="1368" d="M80 918q0 207 137 320.5t397 113.5h582v-1557h-184v1381h-252v-1381h-189v692q-231 2 -361 116t-130 315z" />
<glyph unicode="&#xb7;" horiz-adv-x="491" d="M92 725q0 70 41 109.5t113 39.5q71 0 113 -39.5t42 -109.5q0 -68 -42 -107.5t-113 -39.5q-70 0 -112 39.5t-42 107.5z" />
<glyph unicode="&#xb8;" horiz-adv-x="1024" d="M285 -365l67 127q27 -27 64 -44t80 -17q49 0 81.5 31.5t32.5 83.5q0 61 -43 102t-164 88l89 57q135 -33 208.5 -109.5t73.5 -168.5q0 -98 -69.5 -161.5t-184.5 -63.5q-80 0 -136 18.5t-99 56.5z" />
<glyph unicode="&#xb9;" horiz-adv-x="530" d="M27 1204v150q61 10 139 53t108 88h154v-813h-176v494q0 61 6 141q-117 -98 -231 -113z" />
<glyph unicode="&#xba;" horiz-adv-x="776" d="M51 1008q0 168 87 260t249 92q164 0 251 -92t87 -260q0 -166 -87 -258.5t-251 -92.5q-162 0 -249 92.5t-87 258.5zM74 381v131h628v-131h-628zM229 1008q0 -221 158 -222q160 1 160 222q0 225 -160 225q-158 0 -158 -225z" />
<glyph unicode="&#xbb;" horiz-adv-x="1064" d="M94 141l258 402l-258 401h215l258 -401l-258 -402h-215zM498 141l258 402l-258 401h215l258 -401l-258 -402h-215z" />
<glyph unicode="&#xbc;" horiz-adv-x="1673" d="M27 1071v150q61 10 139 53t108 88h154v-813h-176v493q0 61 6 142q-113 -98 -231 -113zM206 0l977 1352h187l-977 -1352h-187zM938 186v88l359 531h201v-498h137v-121h-137v-194h-152v194h-408zM1100 307h246v211q0 84 6 160h-6q-33 -66 -63 -115z" />
<glyph unicode="&#xbd;" horiz-adv-x="1810" d="M27 1071v150q61 10 139 53t108 88h154v-813h-176v493q0 61 6 142q-113 -98 -231 -113zM206 0l977 1352h187l-977 -1352h-187zM1096 545q6 127 94 198.5t232 71.5q156 0 236.5 -76.5t80.5 -185.5q0 -86 -64.5 -171t-201.5 -179q-31 -20 -123 -74v-2q92 6 148 6h258v-141 h-635v117q111 72 186 127q143 109 195.5 174t52.5 131q0 59 -36 96t-103 37q-72 0 -113 -48t-43 -132z" />
<glyph unicode="&#xbe;" horiz-adv-x="1894" d="M41 735l166 70q18 -131 160 -131q66 0 103.5 32.5t37.5 88.5q0 102 -141 102h-50v111h43q63 0 96 28.5t33 81.5q0 55 -31.5 84t-90.5 29q-123 0 -144 -117l-160 55q25 100 108 151.5t204 51.5q139 0 217 -60.5t78 -162.5q0 -86 -49.5 -136t-114.5 -55v-4q74 -2 128 -50 t54 -132q0 -106 -87 -170.5t-228 -64.5q-266 0 -332 198zM428 0l977 1352h187l-977 -1352h-187zM1159 186v88l359 531h201v-498h137v-121h-137v-194h-152v194h-408zM1321 307h246v211q0 84 6 160h-6q-33 -66 -63 -115z" />
<glyph unicode="&#xbf;" horiz-adv-x="1142" d="M92 8q0 174 106.5 268.5t280.5 112.5l6 205h209l6 -307q-201 -27 -287.5 -85.5t-86.5 -164.5q0 -90 64.5 -141.5t189.5 -51.5q121 0 197.5 69t88.5 187l203 -96q-33 -160 -163 -256t-341 -96q-213 0 -343 94t-130 262zM438 897q0 68 41 106.5t111 38.5q72 0 112.5 -38.5 t40.5 -106.5q0 -66 -42 -105.5t-111 -39.5q-70 0 -111 39.5t-41 105.5z" />
<glyph unicode="&#xc0;" horiz-adv-x="1361" d="M41 0l510 1352h262l510 -1352h-231l-127 354h-570l-129 -354h-225zM414 1819h233l115 -310h-168zM459 532h440l-156 435l-61 194h-6l-58 -190z" />
<glyph unicode="&#xc1;" horiz-adv-x="1361" d="M41 0l510 1352h262l510 -1352h-231l-127 354h-570l-129 -354h-225zM459 532h440l-156 435l-61 194h-6l-58 -190zM578 1509l114 310h234l-181 -310h-167z" />
<glyph unicode="&#xc2;" horiz-adv-x="1361" d="M41 0l510 1352h262l510 -1352h-231l-127 354h-570l-129 -354h-225zM336 1497l231 342h230l231 -342h-182l-164 219l-164 -219h-182zM459 532h440l-156 435l-61 194h-6l-58 -190z" />
<glyph unicode="&#xc3;" horiz-adv-x="1361" d="M41 0l510 1352h262l510 -1352h-231l-127 354h-570l-129 -354h-225zM299 1506q18 291 244 290q57 0 95 -20.5t85 -61.5q35 -29 53.5 -40t40.5 -11q41 0 62.5 33t31.5 100h150q-19 -288 -242 -288q-59 0 -99 21.5t-83 60.5q-35 29 -53.5 40t-42.5 11q-39 0 -60.5 -34 t-31.5 -101h-150zM459 532h440l-156 435l-61 194h-6l-58 -190z" />
<glyph unicode="&#xc4;" horiz-adv-x="1361" d="M41 0l510 1352h262l510 -1352h-231l-127 354h-570l-129 -354h-225zM340 1633q0 59 37 94t96 35q62 0 98.5 -35t36.5 -94t-36.5 -94t-98.5 -35q-59 0 -96 35.5t-37 93.5zM459 532h440l-156 435l-61 194h-6l-58 -190zM754 1633q0 59 36 94t97 35t98 -35t37 -94t-37 -94 t-98 -35t-97 34.5t-36 94.5z" />
<glyph unicode="&#xc5;" horiz-adv-x="1361" d="M41 0l489 1290q-57 31 -88.5 85.5t-31.5 125.5q0 111 75.5 180.5t198.5 69.5t196.5 -69.5t73.5 -180.5q0 -72 -31.5 -126t-88.5 -85l489 -1290h-231l-127 354h-570l-129 -354h-225zM459 532h440l-156 435l-61 194h-6l-58 -190zM543 1499q0 -59 39 -96t100 -37q59 0 98 37 t39 96q0 57 -39 95t-98 38q-61 0 -100 -36.5t-39 -96.5z" />
<glyph unicode="&#xc6;" horiz-adv-x="1935" d="M6 0l727 1352h1079v-185h-694v-393h529v-182h-529v-408h723v-184h-936v426h-448l-221 -426h-230zM549 602h356v567h-63z" />
<glyph unicode="&#xc7;" horiz-adv-x="1400" d="M125 676q0 213 78 370.5t221 241.5t336 84q203 0 341 -84t199 -248l-206 -92q-41 121 -119 177.5t-203 56.5q-190 0 -304 -134.5t-114 -371.5q0 -240 108.5 -373t301.5 -133q131 0 220 65.5t128 192.5l209 -70q-51 -153 -165 -247.5t-271 -120.5q57 -41 86.5 -94.5 t29.5 -110.5q0 -98 -69.5 -161.5t-183.5 -63.5q-80 0 -136.5 18.5t-99.5 56.5l68 127q27 -27 63.5 -44t79.5 -17q49 0 82 31.5t33 83.5q0 53 -33 91t-119 77q-172 14 -299 103t-194.5 239.5t-67.5 349.5z" />
<glyph unicode="&#xc8;" horiz-adv-x="1302" d="M201 0v1352h979v-189h-760v-389h594v-184h-594v-402h788v-188h-1007zM453 1819h233l115 -310h-168z" />
<glyph unicode="&#xc9;" horiz-adv-x="1302" d="M201 0v1352h979v-189h-760v-389h594v-184h-594v-402h788v-188h-1007zM582 1509l114 310h234l-180 -310h-168z" />
<glyph unicode="&#xca;" horiz-adv-x="1302" d="M201 0v1352h979v-189h-760v-389h594v-184h-594v-402h788v-188h-1007zM338 1497l231 342h230l231 -342h-182l-164 219l-164 -219h-182z" />
<glyph unicode="&#xcb;" horiz-adv-x="1302" d="M201 0v1352h979v-189h-760v-389h594v-184h-594v-402h788v-188h-1007zM344 1633q0 59 37 94t96 35q62 0 98.5 -35t36.5 -94t-36.5 -94t-98.5 -35q-59 0 -96 35.5t-37 93.5zM758 1633q0 59 36 94t97 35t98 -35t37 -94t-37 -94t-98 -35t-97 34.5t-36 94.5z" />
<glyph unicode="&#xcc;" horiz-adv-x="620" d="M41 1819h233l115 -310h-168zM201 0v1352h219v-1352h-219z" />
<glyph unicode="&#xcd;" horiz-adv-x="620" d="M201 0v1352h219v-1352h-219zM207 1509l115 310h233l-180 -310h-168z" />
<glyph unicode="&#xce;" horiz-adv-x="620" d="M-37 1497l232 342h229l231 -342h-182l-164 219l-164 -219h-182zM201 0v1352h219v-1352h-219z" />
<glyph unicode="&#xcf;" horiz-adv-x="620" d="M-8 1632q0 59 35.5 94t95.5 35q61 0 97 -34.5t36 -94.5q0 -59 -36 -94t-97 -35q-59 0 -95 35t-36 94zM201 0v1352h219v-1352h-219zM362 1632q0 59 37 94t97 35q59 0 96 -34.5t37 -94.5q0 -57 -37 -93t-96 -36t-96.5 36t-37.5 93z" />
<glyph unicode="&#xd0;" horiz-adv-x="1511" d="M45 602v156h193v594h477q319 0 495 -176.5t176 -499.5q0 -324 -176 -500t-495 -176h-477v602h-193zM457 186h258q215 0 329.5 128t114.5 362q0 233 -114.5 361t-329.5 128h-258v-407h362v-156h-362v-416z" />
<glyph unicode="&#xd1;" horiz-adv-x="1507" d="M201 0v1352h258l520 -850l133 -252h2l-8 229v873h203v-1352h-260l-523 852l-131 250h-2l8 -230v-872h-200zM379 1506q18 291 244 290q57 0 95 -20.5t85 -61.5q35 -29 53.5 -40t40.5 -11q41 0 62.5 33t31.5 100h150q-19 -288 -242 -288q-59 0 -99 21.5t-83 60.5 q-35 29 -53.5 40t-42.5 11q-39 0 -60.5 -34t-31.5 -101h-150z" />
<glyph unicode="&#xd2;" horiz-adv-x="1525" d="M125 676q0 213 78 370.5t221 241.5t338 84q194 0 338.5 -84t222.5 -241.5t78 -370.5t-78 -371t-222.5 -241.5t-338.5 -83.5q-195 0 -338 83.5t-221 241.5t-78 371zM354 676q0 -240 108.5 -373t299.5 -133q193 0 301 133t108 373t-108.5 373t-300.5 133 q-191 0 -299.5 -133.5t-108.5 -372.5zM494 1819h233l115 -310h-168z" />
<glyph unicode="&#xd3;" horiz-adv-x="1525" d="M125 676q0 213 78 370.5t221 241.5t338 84q194 0 338.5 -84t222.5 -241.5t78 -370.5t-78 -371t-222.5 -241.5t-338.5 -83.5q-195 0 -338 83.5t-221 241.5t-78 371zM354 676q0 -240 108.5 -373t299.5 -133q193 0 301 133t108 373t-108.5 373t-300.5 133 q-191 0 -299.5 -133.5t-108.5 -372.5zM659 1509l115 310h234l-181 -310h-168z" />
<glyph unicode="&#xd4;" horiz-adv-x="1525" d="M125 676q0 213 78 370.5t221 241.5t338 84q194 0 338.5 -84t222.5 -241.5t78 -370.5t-78 -371t-222.5 -241.5t-338.5 -83.5q-195 0 -338 83.5t-221 241.5t-78 371zM354 676q0 -240 108.5 -373t299.5 -133q193 0 301 133t108 373t-108.5 373t-300.5 133 q-191 0 -299.5 -133.5t-108.5 -372.5zM416 1497l231 342h230l231 -342h-182l-164 219l-164 -219h-182z" />
<glyph unicode="&#xd5;" horiz-adv-x="1525" d="M125 676q0 213 78 370.5t221 241.5t338 84q194 0 338.5 -84t222.5 -241.5t78 -370.5t-78 -371t-222.5 -241.5t-338.5 -83.5q-195 0 -338 83.5t-221 241.5t-78 371zM354 676q0 -240 108.5 -373t299.5 -133q193 0 301 133t108 373t-108.5 373t-300.5 133 q-191 0 -299.5 -133.5t-108.5 -372.5zM381 1506q18 291 244 290q57 0 95 -20.5t85 -61.5q35 -29 53.5 -40t40.5 -11q41 0 62.5 33t31.5 100h150q-19 -288 -242 -288q-59 0 -99 21.5t-83 60.5q-35 29 -53.5 40t-42.5 11q-39 0 -60.5 -34t-31.5 -101h-150z" />
<glyph unicode="&#xd6;" horiz-adv-x="1525" d="M125 676q0 213 78 370.5t221 241.5t338 84q194 0 338.5 -84t222.5 -241.5t78 -370.5t-78 -371t-222.5 -241.5t-338.5 -83.5q-195 0 -338 83.5t-221 241.5t-78 371zM354 676q0 -240 108.5 -373t299.5 -133q193 0 301 133t108 373t-108.5 373t-300.5 133 q-191 0 -299.5 -133.5t-108.5 -372.5zM422 1633q0 59 37 94t96 35q62 0 98.5 -35t36.5 -94t-36.5 -94t-98.5 -35q-59 0 -96 35.5t-37 93.5zM836 1633q0 59 36 94t97 35t98 -35t37 -94t-37 -94t-98 -35t-97 34.5t-36 94.5z" />
<glyph unicode="&#xd7;" horiz-adv-x="1236" d="M150 319l335 336l-335 336l133 133l335 -336l336 336l131 -133l-335 -336l335 -336l-131 -133l-336 336l-335 -336z" />
<glyph unicode="&#xd8;" horiz-adv-x="1525" d="M125 676q0 213 78 370.5t221 241.5t338 84q209 0 358 -96l86 121h154l-141 -201q88 -90 135 -223t47 -297q0 -213 -78 -371t-222.5 -241.5t-338.5 -83.5q-199 0 -344 88l-99 -138h-153l151 215q-92 92 -142 227.5t-50 303.5zM354 676q0 -221 92 -354l553 788 q-96 72 -237 72q-191 0 -299.5 -133.5t-108.5 -372.5zM541 231q92 -61 221 -61q192 0 300.5 133t108.5 373q0 213 -84 340z" />
<glyph unicode="&#xd9;" horiz-adv-x="1470" d="M182 518v834h221v-807q0 -193 81 -284t251 -91t251 91t81 284v807h221v-834q0 -266 -141 -402t-412 -136q-270 0 -411.5 136t-141.5 402zM467 1819h233l115 -310h-168z" />
<glyph unicode="&#xda;" horiz-adv-x="1470" d="M182 518v834h221v-807q0 -193 81 -284t251 -91t251 91t81 284v807h221v-834q0 -266 -141 -402t-412 -136q-270 0 -411.5 136t-141.5 402zM631 1509l114 310h234l-180 -310h-168z" />
<glyph unicode="&#xdb;" horiz-adv-x="1470" d="M182 518v834h221v-807q0 -193 81 -284t251 -91t251 91t81 284v807h221v-834q0 -266 -141 -402t-412 -136q-270 0 -411.5 136t-141.5 402zM389 1497l232 342h229l231 -342h-182l-164 219l-164 -219h-182z" />
<glyph unicode="&#xdc;" horiz-adv-x="1470" d="M182 518v834h221v-807q0 -193 81 -284t251 -91t251 91t81 284v807h221v-834q0 -266 -141 -402t-412 -136q-270 0 -411.5 136t-141.5 402zM393 1633q0 59 37 94t96 35q62 0 98.5 -35t36.5 -94t-36.5 -94t-98.5 -35q-59 0 -96 35.5t-37 93.5zM807 1633q0 59 36 94t97 35 t98 -35t37 -94t-37 -94t-98 -35t-97 34.5t-36 94.5z" />
<glyph unicode="&#xdd;" horiz-adv-x="1222" d="M20 1352h244l242 -434l106 -203l107 203l239 434h246l-483 -834v-518h-219v518zM508 1509l115 310h233l-180 -310h-168z" />
<glyph unicode="&#xde;" horiz-adv-x="1308" d="M201 0v1352h219v-232h274q252 0 382 -110.5t130 -319.5t-130 -319.5t-382 -110.5h-274v-260h-219zM420 446h272q146 0 217.5 60.5t69.5 183.5q2 123 -69.5 183.5t-217.5 60.5h-272v-488z" />
<glyph unicode="&#xdf;" horiz-adv-x="1286" d="M170 0v995q0 238 119 369t389 131q154 0 256 -56.5t150.5 -144.5t48.5 -186q0 -76 -37 -149.5t-112 -122t-183 -48.5v-4q129 0 214 -55t125 -144t40 -190q0 -111 -51.5 -206t-154 -152t-247.5 -57q-70 0 -131 19t-94 48l49 162q57 -49 164 -49q121 0 187.5 71.5 t66.5 190.5q0 127 -81 192.5t-235 65.5h-86l11 182h75q121 0 190.5 64.5t69.5 167.5q0 109 -63.5 163t-183.5 54q-154 0 -215.5 -86t-61.5 -273v-952h-219z" />
<glyph unicode="&#xe0;" horiz-adv-x="1167" d="M100 248q0 121 100.5 204t299.5 117l260 45v56q0 94 -55.5 148t-153.5 54q-203 0 -264 -184l-170 90q37 123 150.5 194.5t279.5 71.5q199 0 315.5 -92t116.5 -270v-463q0 -39 17.5 -57.5t58.5 -18.5q44 1 75 9l-14 -148q-55 -25 -127 -24q-88 0 -140 34.5t-69 116.5 q-47 -72 -139 -111.5t-207 -39.5q-150 0 -242 69.5t-92 198.5zM295 1528h221l149 -344h-168zM328 262q0 -57 40 -87t113 -30q111 0 195 53.5t84 141.5v123l-223 -45q-106 -20 -157.5 -57t-51.5 -99z" />
<glyph unicode="&#xe1;" horiz-adv-x="1167" d="M100 248q0 121 100.5 204t299.5 117l260 45v56q0 94 -55.5 148t-153.5 54q-203 0 -264 -184l-170 90q37 123 150.5 194.5t279.5 71.5q199 0 315.5 -92t116.5 -270v-463q0 -39 17.5 -57.5t58.5 -18.5q44 1 75 9l-14 -148q-55 -25 -127 -24q-88 0 -140 34.5t-69 116.5 q-47 -72 -139 -111.5t-207 -39.5q-150 0 -242 69.5t-92 198.5zM328 262q0 -57 40 -87t113 -30q111 0 195 53.5t84 141.5v123l-223 -45q-106 -20 -157.5 -57t-51.5 -99zM449 1184l149 344h221l-202 -344h-168z" />
<glyph unicode="&#xe2;" horiz-adv-x="1167" d="M100 248q0 121 100.5 204t299.5 117l260 45v56q0 94 -55.5 148t-153.5 54q-203 0 -264 -184l-170 90q37 123 150.5 194.5t279.5 71.5q199 0 315.5 -92t116.5 -270v-463q0 -39 17.5 -57.5t58.5 -18.5q44 1 75 9l-14 -148q-55 -25 -127 -24q-88 0 -140 34.5t-69 116.5 q-47 -72 -139 -111.5t-207 -39.5q-150 0 -242 69.5t-92 198.5zM221 1169l227 347h234l227 -347h-180l-164 213l-164 -213h-180zM328 262q0 -57 40 -87t113 -30q111 0 195 53.5t84 141.5v123l-223 -45q-106 -20 -157.5 -57t-51.5 -99z" />
<glyph unicode="&#xe3;" horiz-adv-x="1167" d="M100 248q0 121 100.5 204t299.5 117l260 45v56q0 94 -55.5 148t-153.5 54q-203 0 -264 -184l-170 90q37 123 150.5 194.5t279.5 71.5q199 0 315.5 -92t116.5 -270v-463q0 -39 17.5 -57.5t58.5 -18.5q44 1 75 9l-14 -148q-55 -25 -127 -24q-88 0 -140 34.5t-69 116.5 q-47 -72 -139 -111.5t-207 -39.5q-150 0 -242 69.5t-92 198.5zM182 1178q18 291 244 290q57 0 95 -20.5t85 -61.5q35 -29 53.5 -40t40.5 -11q41 0 62.5 33t31.5 100h150q-19 -288 -242 -288q-59 0 -99 21.5t-83 60.5q-35 29 -53.5 40t-42.5 11q-39 0 -60.5 -34t-31.5 -101 h-150zM328 262q0 -57 40 -87t113 -30q111 0 195 53.5t84 141.5v123l-223 -45q-106 -20 -157.5 -57t-51.5 -99z" />
<glyph unicode="&#xe4;" horiz-adv-x="1167" d="M100 248q0 121 100.5 204t299.5 117l260 45v56q0 94 -55.5 148t-153.5 54q-203 0 -264 -184l-170 90q37 123 150.5 194.5t279.5 71.5q199 0 315.5 -92t116.5 -270v-463q0 -39 17.5 -57.5t58.5 -18.5q44 1 75 9l-14 -148q-55 -25 -127 -24q-88 0 -140 34.5t-69 116.5 q-47 -72 -139 -111.5t-207 -39.5q-150 0 -242 69.5t-92 198.5zM225 1305q0 59 37 94t96 35q62 0 98.5 -35t36.5 -94t-36.5 -94t-98.5 -35q-59 0 -96 35.5t-37 93.5zM328 262q0 -57 40 -87t113 -30q111 0 195 53.5t84 141.5v123l-223 -45q-106 -20 -157.5 -57t-51.5 -99z M639 1305q0 59 36 94t97 35t98 -35t37 -94t-37 -94t-98 -35t-97 34.5t-36 94.5z" />
<glyph unicode="&#xe5;" horiz-adv-x="1167" d="M100 248q0 121 100.5 204t299.5 117l260 45v56q0 94 -55.5 148t-153.5 54q-203 0 -264 -184l-170 90q37 123 150.5 194.5t279.5 71.5q199 0 315.5 -92t116.5 -270v-463q0 -39 17.5 -57.5t58.5 -18.5q44 1 75 9l-14 -148q-55 -25 -127 -24q-88 0 -140 34.5t-69 116.5 q-47 -72 -139 -111.5t-207 -39.5q-150 0 -242 69.5t-92 198.5zM299 1409q0 109 72.5 175.5t191.5 66.5t189.5 -66.5t70.5 -175.5q0 -113 -70.5 -179.5t-189.5 -66.5q-121 0 -192.5 66.5t-71.5 179.5zM328 262q0 -57 40 -87t113 -30q111 0 195 53.5t84 141.5v123l-223 -45 q-106 -20 -157.5 -57t-51.5 -99zM428 1409q0 -57 38 -94t97 -37t96 37t37 94t-37 93t-96 36t-97 -36t-38 -93z" />
<glyph unicode="&#xe6;" horiz-adv-x="1808" d="M100 248q0 121 96.5 200.5t284.5 110.5l291 45v66q0 94 -58.5 148t-164.5 54q-94 0 -160.5 -46t-99.5 -136l-170 84q39 127 153.5 198.5t284.5 71.5q121 0 208 -47t136 -139q57 90 145.5 138t200.5 48q219 0 336 -135t117 -348q0 -62 -8 -123h-709q14 -135 90 -209.5 t189 -74.5q98 0 155.5 34.5t81.5 104.5l180 -76q-55 -119 -155.5 -178t-266.5 -59q-135 0 -234 55t-153 168q-47 -111 -161.5 -167t-274.5 -56q-154 0 -244 72.5t-90 195.5zM328 262q0 -117 161 -117q115 0 199 67t84 179v70l-227 -43q-117 -23 -167 -57.5t-50 -98.5z M983 596h514q-27 274 -246 274q-110 0 -180 -70.5t-88 -203.5z" />
<glyph unicode="&#xe7;" horiz-adv-x="1159" d="M111 512q0 250 135 391t375 141q336 0 444 -286l-205 -82q-53 195 -239 194q-137 0 -213 -94t-76 -266t75.5 -264t213.5 -92q104 0 167.5 51t83.5 147l201 -67q-37 -119 -122 -196t-214 -99q55 -41 85 -94.5t30 -110.5q0 -98 -69.5 -161.5t-184.5 -63.5q-80 0 -136 18.5 t-100 56.5l68 127q27 -27 63.5 -44t79.5 -17q49 0 82 31.5t33 83.5q0 55 -33.5 93t-122.5 77q-201 27 -311 164t-110 362z" />
<glyph unicode="&#xe8;" horiz-adv-x="1189" d="M111 512q0 252 131 392t368 140q225 0 350 -137t125 -364q0 -60 -8 -113h-749q18 -135 96 -205.5t201 -70.5q100 0 166.5 35.5t91.5 103.5l182 -76q-115 -238 -440 -237q-242 0 -378 141t-136 391zM328 598h553q-16 129 -87 200.5t-184 71.5q-118 0 -191 -69.5 t-91 -202.5zM334 1528h221l149 -344h-168z" />
<glyph unicode="&#xe9;" horiz-adv-x="1189" d="M111 512q0 252 131 392t368 140q225 0 350 -137t125 -364q0 -60 -8 -113h-749q18 -135 96 -205.5t201 -70.5q100 0 166.5 35.5t91.5 103.5l182 -76q-115 -238 -440 -237q-242 0 -378 141t-136 391zM328 598h553q-16 129 -87 200.5t-184 71.5q-118 0 -191 -69.5 t-91 -202.5zM488 1184l149 344h221l-202 -344h-168z" />
<glyph unicode="&#xea;" horiz-adv-x="1189" d="M111 512q0 252 131 392t368 140q225 0 350 -137t125 -364q0 -60 -8 -113h-749q18 -135 96 -205.5t201 -70.5q100 0 166.5 35.5t91.5 103.5l182 -76q-115 -238 -440 -237q-242 0 -378 141t-136 391zM260 1169l227 347h234l227 -347h-180l-164 213l-164 -213h-180zM328 598 h553q-16 129 -87 200.5t-184 71.5q-118 0 -191 -69.5t-91 -202.5z" />
<glyph unicode="&#xeb;" horiz-adv-x="1189" d="M111 512q0 252 131 392t368 140q225 0 350 -137t125 -364q0 -60 -8 -113h-749q18 -135 96 -205.5t201 -70.5q100 0 166.5 35.5t91.5 103.5l182 -76q-115 -238 -440 -237q-242 0 -378 141t-136 391zM264 1305q0 59 37 94t96 35q62 0 98.5 -35t36.5 -94t-36.5 -94 t-98.5 -35q-59 0 -96 35.5t-37 93.5zM328 598h553q-16 129 -87 200.5t-184 71.5q-118 0 -191 -69.5t-91 -202.5zM678 1305q0 59 36 94t97 35t98 -35t37 -94t-37 -94t-98 -35t-97 34.5t-36 94.5z" />
<glyph unicode="&#xec;" horiz-adv-x="561" d="M11 1528h221l149 -344h-168zM170 0v1024h219v-1024h-219z" />
<glyph unicode="&#xed;" horiz-adv-x="561" d="M170 0v1024h219v-1024h-219zM181 1184l149 344h221l-202 -344h-168z" />
<glyph unicode="&#xee;" horiz-adv-x="561" d="M-63 1169l227 347h234l227 -347h-180l-164 213l-164 -213h-180zM170 0v1024h219v-1024h-219z" />
<glyph unicode="&#xef;" horiz-adv-x="561" d="M-25 1305q0 59 36 95t95 36q61 0 97.5 -36t36.5 -95t-36 -94t-98 -35q-59 0 -95 34.5t-36 94.5zM170 0v1024h219v-1024h-219zM322 1305q0 61 35.5 96t97.5 35q59 0 95 -36t36 -95t-36 -94t-95 -35q-64 0 -98.5 34.5t-34.5 94.5z" />
<glyph unicode="&#xf0;" horiz-adv-x="1259" d="M115 489q0 156 62.5 272t172 177t250.5 61q225 0 330 -143q-45 205 -162 350l-369 -90l-20 105l315 63q-102 98 -293 207h256q125 -74 213 -168l230 63l30 -106l-194 -35q193 -260 192 -645q0 -295 -130 -457.5t-392 -162.5q-227 0 -359 135t-132 374zM338 489 q0 -160 74.5 -247.5t208.5 -87.5q137 0 217 96t80 239q0 164 -76 252t-213 88q-139 0 -215 -88t-76 -252z" />
<glyph unicode="&#xf1;" d="M170 0v1024h195l10 -170q51 96 141 143t205 47q170 0 277.5 -98t107.5 -282v-664h-219v594q0 270 -219 270q-115 0 -197 -78.5t-82 -242.5v-543h-219zM266 1178q18 291 244 290q57 0 95 -20.5t85 -61.5q35 -29 53.5 -40t40.5 -11q41 0 62.5 33t31.5 100h150 q-19 -288 -242 -288q-59 0 -99 21.5t-83 60.5q-35 29 -53.5 40t-42.5 11q-39 0 -60.5 -34t-31.5 -101h-150z" />
<glyph unicode="&#xf2;" horiz-adv-x="1241" d="M111 512q0 250 135 391t375 141q239 0 374 -141t135 -391t-135 -391t-374 -141q-240 0 -375 141t-135 391zM332 512q0 -174 74.5 -267t214.5 -93q139 0 214.5 94t75.5 266t-75.5 266t-214.5 94q-140 0 -214.5 -93t-74.5 -267zM351 1528h221l149 -344h-168z" />
<glyph unicode="&#xf3;" horiz-adv-x="1241" d="M111 512q0 250 135 391t375 141q239 0 374 -141t135 -391t-135 -391t-374 -141q-240 0 -375 141t-135 391zM332 512q0 -174 74.5 -267t214.5 -93q139 0 214.5 94t75.5 266t-75.5 266t-214.5 94q-140 0 -214.5 -93t-74.5 -267zM504 1184l149 344h221l-202 -344h-168z" />
<glyph unicode="&#xf4;" horiz-adv-x="1241" d="M111 512q0 250 135 391t375 141q239 0 374 -141t135 -391t-135 -391t-374 -141q-240 0 -375 141t-135 391zM277 1169l227 347h234l227 -347h-180l-164 213l-164 -213h-180zM332 512q0 -174 74.5 -267t214.5 -93q139 0 214.5 94t75.5 266t-75.5 266t-214.5 94 q-140 0 -214.5 -93t-74.5 -267z" />
<glyph unicode="&#xf5;" horiz-adv-x="1241" d="M111 512q0 250 135 391t375 141q239 0 374 -141t135 -391t-135 -391t-374 -141q-240 0 -375 141t-135 391zM237 1178q18 291 244 290q57 0 95 -20.5t85 -61.5q35 -29 53.5 -40t40.5 -11q41 0 62.5 33t31.5 100h150q-19 -288 -242 -288q-59 0 -99 21.5t-83 60.5 q-35 29 -53.5 40t-42.5 11q-39 0 -60.5 -34t-31.5 -101h-150zM332 512q0 -174 74.5 -267t214.5 -93q139 0 214.5 94t75.5 266t-75.5 266t-214.5 94q-140 0 -214.5 -93t-74.5 -267z" />
<glyph unicode="&#xf6;" horiz-adv-x="1241" d="M111 512q0 250 135 391t375 141q239 0 374 -141t135 -391t-135 -391t-374 -141q-240 0 -375 141t-135 391zM280 1305q0 59 37 94t96 35q62 0 98.5 -35t36.5 -94t-36.5 -94t-98.5 -35q-59 0 -96 35.5t-37 93.5zM332 512q0 -174 74.5 -267t214.5 -93q139 0 214.5 94 t75.5 266t-75.5 266t-214.5 94q-140 0 -214.5 -93t-74.5 -267zM694 1305q0 59 36 94t97 35t98 -35t37 -94t-37 -94t-98 -35t-97 34.5t-36 94.5z" />
<glyph unicode="&#xf7;" horiz-adv-x="1236" d="M115 563v182h1007v-182h-1007zM471 242q0 66 40 104.5t110 38.5q67 0 107 -39t40 -104q0 -66 -40 -106t-107 -40q-70 0 -110 40t-40 106zM471 1065q0 68 40 106.5t110 38.5q67 0 107 -38.5t40 -106.5q0 -66 -40 -104.5t-107 -38.5q-70 0 -110 38.5t-40 104.5z" />
<glyph unicode="&#xf8;" horiz-adv-x="1243" d="M111 512q0 250 135 391t375 141q176 1 297 -77l79 102h138l-136 -172q131 -141 131 -385q0 -250 -135 -391t-374 -141q-162 0 -277 65l-88 -115h-137l137 181q-145 141 -145 401zM332 512q0 -143 59 -233h2l66 92l336 444q-70 57 -174 57q-139 0 -214 -93t-75 -267z M465 197q63 -45 156 -45q139 0 214.5 94t75.5 266q0 125 -51 211h-2l-59 -82z" />
<glyph unicode="&#xf9;" d="M162 350v674h219v-616q0 -135 53 -191.5t158 -56.5q125 0 206 78.5t81 232.5v553h219v-1024h-195l-8 166q-104 -186 -365 -186q-166 0 -267 91t-101 279zM359 1528h221l149 -344h-168z" />
<glyph unicode="&#xfa;" d="M162 350v674h219v-616q0 -135 53 -191.5t158 -56.5q125 0 206 78.5t81 232.5v553h219v-1024h-195l-8 166q-104 -186 -365 -186q-166 0 -267 91t-101 279zM512 1184l149 344h221l-202 -344h-168z" />
<glyph unicode="&#xfb;" d="M162 350v674h219v-616q0 -135 53 -191.5t158 -56.5q125 0 206 78.5t81 232.5v553h219v-1024h-195l-8 166q-104 -186 -365 -186q-166 0 -267 91t-101 279zM285 1169l227 347h234l227 -347h-180l-164 213l-164 -213h-180z" />
<glyph unicode="&#xfc;" d="M162 350v674h219v-616q0 -135 53 -191.5t158 -56.5q125 0 206 78.5t81 232.5v553h219v-1024h-195l-8 166q-104 -186 -365 -186q-166 0 -267 91t-101 279zM289 1305q0 59 37 94t96 35q62 0 98.5 -35t36.5 -94t-36.5 -94t-98.5 -35q-59 0 -96 35.5t-37 93.5zM703 1305 q0 59 36 94t97 35t98 -35t37 -94t-37 -94t-98 -35t-97 34.5t-36 94.5z" />
<glyph unicode="&#xfd;" horiz-adv-x="1118" d="M23 -358l63 168q61 -74 168 -74q61 0 103 31.5t75 115.5l45 111l-106 254l-320 776h246l225 -643l60 -193l69 211l213 625h228l-449 -1145q-68 -176 -154 -247.5t-225 -71.5q-80 0 -138 19.5t-103 62.5zM461 1184l149 344h221l-202 -344h-168z" />
<glyph unicode="&#xfe;" horiz-adv-x="1288" d="M170 -430v1915h219v-613q49 80 135 126t199 46q205 0 328 -139t123 -391q0 -172 -58.5 -293t-160 -181t-234.5 -60q-111 0 -196 44t-136 121v-575h-219zM389 500q0 -160 77 -251t206 -91q133 0 207.5 93t74.5 261t-74.5 262t-207.5 94q-129 0 -206 -92t-77 -252v-24z" />
<glyph unicode="&#xff;" horiz-adv-x="1118" d="M23 -358l63 168q61 -74 168 -74q61 0 103 31.5t75 115.5l45 111l-106 254l-320 776h246l225 -643l60 -193l69 211l213 625h228l-449 -1145q-68 -176 -154 -247.5t-225 -71.5q-80 0 -138 19.5t-103 62.5zM237 1305q0 59 37 94t96 35q62 0 98.5 -35t36.5 -94t-36.5 -94 t-98.5 -35q-59 0 -96 35.5t-37 93.5zM651 1305q0 59 36 94t97 35t98 -35t37 -94t-37 -94t-98 -35t-97 34.5t-36 94.5z" />
<glyph unicode="&#x152;" horiz-adv-x="2191" d="M125 676q0 213 75.5 370.5t218 241.5t339.5 84q133 0 241.5 -53t184.5 -152v185h884v-189h-708v-389h545v-184h-545v-402h739v-188h-915v188q-76 -100 -186.5 -154t-245.5 -54q-193 0 -334.5 83.5t-217 241.5t-75.5 371zM352 676q0 -242 106.5 -374t303.5 -132 q178 0 283.5 134t105.5 372t-105.5 372t-283.5 134q-197 0 -303.5 -132t-106.5 -374z" />
<glyph unicode="&#x153;" horiz-adv-x="2002" d="M111 512q0 250 136 391t374 141q141 0 244.5 -54t164.5 -159q57 104 156.5 158.5t234.5 54.5q150 0 257.5 -63t162.5 -173t55 -247q0 -70 -10 -117h-749q14 -139 93 -214.5t206 -75.5q102 0 168.5 35.5t91.5 103.5l180 -76q-115 -238 -440 -237q-139 0 -241.5 55 t-162.5 160q-61 -104 -165.5 -159.5t-245.5 -55.5q-238 0 -374 141t-136 391zM336 512q0 -172 75.5 -265t215.5 -93q137 0 212.5 93t75.5 265t-75.5 265t-212.5 93q-139 0 -215 -93t-76 -265zM1139 596h547q-16 131 -83 202.5t-182 71.5q-121 0 -192.5 -69.5t-89.5 -204.5z " />
<glyph unicode="&#x178;" horiz-adv-x="1222" d="M20 1352h244l242 -434l106 -203l107 203l239 434h246l-483 -834v-518h-219v518zM270 1633q0 59 37 94t96 35q62 0 98.5 -35t36.5 -94t-36.5 -94t-98.5 -35q-59 0 -96 35.5t-37 93.5zM684 1633q0 59 36 94t97 35t98 -35t37 -94t-37 -94t-98 -35t-97 34.5t-36 94.5z" />
<glyph unicode="&#x2c6;" horiz-adv-x="1024" d="M168 1169l227 347h234l227 -347h-180l-164 213l-164 -213h-180z" />
<glyph unicode="&#x2dc;" horiz-adv-x="1024" d="M131 1178q18 291 244 290q57 0 95 -20.5t85 -61.5q35 -29 53.5 -40t40.5 -11q41 0 62.5 33t31.5 100h150q-19 -288 -242 -288q-59 0 -99 21.5t-83 60.5q-35 29 -53.5 40t-42.5 11q-39 0 -60.5 -34t-31.5 -101h-150z" />
<glyph unicode="&#x2000;" horiz-adv-x="919" />
<glyph unicode="&#x2001;" horiz-adv-x="1839" />
<glyph unicode="&#x2002;" horiz-adv-x="919" />
<glyph unicode="&#x2003;" horiz-adv-x="1839" />
<glyph unicode="&#x2004;" horiz-adv-x="613" />
<glyph unicode="&#x2005;" horiz-adv-x="459" />
<glyph unicode="&#x2006;" horiz-adv-x="306" />
<glyph unicode="&#x2007;" horiz-adv-x="306" />
<glyph unicode="&#x2008;" horiz-adv-x="229" />
<glyph unicode="&#x2009;" horiz-adv-x="367" />
<glyph unicode="&#x200a;" horiz-adv-x="102" />
<glyph unicode="&#x2010;" horiz-adv-x="1054" d="M178 438v203h699v-203h-699z" />
<glyph unicode="&#x2011;" horiz-adv-x="1054" d="M178 438v203h699v-203h-699z" />
<glyph unicode="&#x2012;" horiz-adv-x="1054" d="M178 438v203h699v-203h-699z" />
<glyph unicode="&#x2013;" horiz-adv-x="1376" d="M166 444v191h1046v-191h-1046z" />
<glyph unicode="&#x2014;" horiz-adv-x="2070" d="M166 444v191h1741v-191h-1741z" />
<glyph unicode="&#x2018;" horiz-adv-x="546" d="M100 1063q0 117 60.5 213t181.5 151l107 -88q-84 -29 -141.5 -85t-76.5 -126l11 -4q16 16 57 17q51 0 91 -38t40 -106q0 -66 -45 -109.5t-111 -43.5q-81 0 -127.5 60.5t-46.5 158.5z" />
<glyph unicode="&#x2019;" horiz-adv-x="546" d="M106 932q84 31 141.5 87t76.5 124l-9 6q-20 -16 -59 -16q-51 0 -91 36.5t-40 104.5q0 66 45 109.5t111 43.5q81 0 127.5 -60t46.5 -157q0 -117 -60.5 -214t-181.5 -152z" />
<glyph unicode="&#x201a;" horiz-adv-x="557" d="M100 -217q84 29 141.5 85t76.5 126l-11 4q-16 -16 -57 -16q-51 0 -91 37.5t-40 105.5q0 66 45 108.5t111 42.5q81 0 127.5 -60t46.5 -157q0 -117 -61.5 -214t-180.5 -152z" />
<glyph unicode="&#x201c;" horiz-adv-x="966" d="M100 1063q0 117 60.5 213t181.5 151l107 -88q-84 -29 -141.5 -85t-76.5 -126l11 -4q16 16 57 17q51 0 91 -38t40 -106q0 -66 -45 -109.5t-111 -43.5q-81 0 -127.5 60.5t-46.5 158.5zM520 1063q0 117 60.5 213t181.5 151l107 -88q-84 -29 -141.5 -85t-76.5 -126l11 -4 q16 16 57 17q51 0 91 -38t40 -106q0 -66 -45 -109.5t-111 -43.5q-81 0 -127.5 60.5t-46.5 158.5z" />
<glyph unicode="&#x201d;" horiz-adv-x="962" d="M106 932q84 31 141.5 87t76.5 124l-9 6q-20 -16 -59 -16q-51 0 -91 36.5t-40 104.5q0 66 45 109.5t111 43.5q81 0 127.5 -60t46.5 -157q0 -117 -60.5 -214t-181.5 -152zM524 932q84 31 141.5 87t76.5 124l-9 6q-20 -16 -59 -16q-51 0 -91 36.5t-40 104.5q0 66 45 109.5 t111 43.5q81 0 127.5 -60t46.5 -157q0 -117 -60.5 -214t-181.5 -152z" />
<glyph unicode="&#x201e;" horiz-adv-x="974" d="M100 -217q84 29 141.5 85t76.5 126l-11 4q-16 -16 -57 -16q-51 0 -91 37.5t-40 105.5q0 66 45 108.5t111 42.5q81 0 127.5 -60t46.5 -157q0 -117 -61.5 -214t-180.5 -152zM518 -217q84 29 141.5 85t76.5 126l-11 4q-16 -16 -57 -16q-51 0 -91 37.5t-40 105.5 q0 66 45 108.5t111 42.5q81 0 127.5 -60t46.5 -157q0 -117 -61.5 -214t-180.5 -152z" />
<glyph unicode="&#x2022;" horiz-adv-x="880" d="M166 688q0 117 76.5 190.5t197.5 73.5q123 0 199 -73.5t76 -190.5q0 -119 -76 -192.5t-199 -73.5q-121 0 -197.5 73.5t-76.5 192.5z" />
<glyph unicode="&#x2026;" horiz-adv-x="1796" d="M137 129q0 68 42 107.5t114 39.5q69 0 111 -39.5t42 -107.5t-42 -108.5t-111 -40.5q-70 0 -113 40.5t-43 108.5zM743 129q0 68 42 107.5t114 39.5q69 0 111 -39.5t42 -107.5t-42 -108.5t-111 -40.5q-70 0 -113 40.5t-43 108.5zM1350 129q0 68 42 107.5t114 39.5 q69 0 111 -39.5t42 -107.5t-42 -108.5t-111 -40.5q-70 0 -113 40.5t-43 108.5z" />
<glyph unicode="&#x202f;" horiz-adv-x="367" />
<glyph unicode="&#x2039;" horiz-adv-x="663" d="M94 543l258 401h215l-258 -401l258 -402h-215z" />
<glyph unicode="&#x203a;" horiz-adv-x="663" d="M96 141l258 402l-258 401h215l258 -401l-258 -402h-215z" />
<glyph unicode="&#x205f;" horiz-adv-x="459" />
<glyph unicode="&#x20ac;" horiz-adv-x="1435" d="M104 436v139h160q-4 66 -4 101q0 41 2 61h-158v142h175q45 233 192 363t373 130q182 0 314 -83t185 -234l-182 -84q-29 109 -110.5 168t-190.5 59q-137 0 -232.5 -83t-133.5 -236h485l-45 -142h-461q-2 -20 -2 -61q0 -35 4 -101h422l-43 -139h-352q41 -137 130 -209.5 t220 -72.5q113 0 203 67.5t123 190.5l184 -62q-53 -174 -192.5 -272t-321.5 -98q-221 0 -365.5 119.5t-195.5 336.5h-183z" />
<glyph unicode="&#x2122;" horiz-adv-x="1710" d="M90 1229v123h576v-123h-205v-553h-162v553h-209zM782 676v676h215l127 -351l43 -131h4l43 131l129 351h211v-676h-159v307l12 186h-2l-25 -82l-151 -411h-121l-152 411l-24 82h-2l12 -186v-307h-160z" />
<glyph unicode="&#x25fc;" horiz-adv-x="1024" d="M0 0v1024h1024v-1024h-1024z" />
</font>
</defs>
</svg>
