<?xml version="1.0" standalone="no"?>
<!DOCTYPE svg PUBLIC "-//W3C//DTD SVG 1.1//EN" "http://www.w3.org/Graphics/SVG/1.1/DTD/svg11.dtd" >
<svg xmlns="http://www.w3.org/2000/svg" xmlns:xlink="http://www.w3.org/1999/xlink" version="1.1">
<metadata></metadata>
<defs>
<font id="work_sanslight" horiz-adv-x="1499" >
<font-face units-per-em="2048" ascent="1638" descent="-410" />
<missing-glyph horiz-adv-x="641" />
<glyph unicode="&#xfb01;" horiz-adv-x="1202" d="M47 936v88h205v172q0 143 80 226t225 83q111 0 166 -55l-29 -82q-51 45 -129 45q-100 0 -155.5 -58.5t-55.5 -168.5v-162h361v-88h-361v-936h-102v936h-205zM882 1309q0 39 24 62.5t62 23.5q39 0 62.5 -23.5t23.5 -62.5t-23.5 -62.5t-62.5 -23.5q-38 0 -62 23.5t-24 62.5 zM917 0v1024h103v-1024h-103z" />
<glyph unicode="&#xfb02;" horiz-adv-x="1294" d="M47 936v88h205v172q0 143 80 226t225 83q111 0 166 -55l-29 -82q-51 45 -129 45q-100 0 -155.5 -58.5t-55.5 -168.5v-162h361v-88h-361v-936h-102v936h-205zM909 238v1257h102v-1247q0 -94 30 -133t100 -39q41 0 69.5 6t65.5 22l-15 -98q-57 -27 -135 -26q-111 0 -164 62 t-53 196z" />
<glyph horiz-adv-x="0" />
<glyph horiz-adv-x="682" />
<glyph unicode=" "  horiz-adv-x="641" />
<glyph unicode="&#x09;" horiz-adv-x="641" />
<glyph unicode="&#xa0;" horiz-adv-x="641" />
<glyph unicode="!" horiz-adv-x="471" d="M143 76q0 41 26 66.5t67 25.5q40 0 66 -25.5t26 -66.5t-26 -66.5t-66 -25.5q-41 0 -67 25.5t-26 66.5zM182 696v656h107v-656l-13 -307h-81z" />
<glyph unicode="&#x22;" horiz-adv-x="669" d="M154 983v420h110l-28 -420h-82zM426 983v420h110l-28 -420h-82z" />
<glyph unicode="#" horiz-adv-x="1302" d="M63 408v79h281l62 392h-267v79h281l61 394h90l-63 -394h371l61 394h90l-63 -394h272v-79h-285l-61 -392h270v-79h-284l-64 -408h-90l66 408h-371l-64 -408h-90l66 408h-269zM434 487h369l63 392h-370z" />
<glyph unicode="$" horiz-adv-x="1226" d="M106 350l95 49q27 -131 131 -213t252 -98v545q-139 29 -228.5 61.5t-149 100t-59.5 182.5q0 98 52.5 182t152 135.5t232.5 55.5v206h88v-206q160 -8 263 -81t161 -212l-82 -66q-45 131 -128 195.5t-214 75.5v-557q139 -29 227 -62t147.5 -100.5t59.5 -184.5 q0 -156 -118 -252t-316 -104v-207h-88v207q-182 10 -307 100.5t-171 247.5zM246 985q0 -82 45 -133t114.5 -77.5t178.5 -51.5v541q-158 -6 -248 -82t-90 -197zM672 86q151 6 244.5 74.5t93.5 189.5q0 82 -45 134.5t-115 80t-178 49.5v-528z" />
<glyph unicode="%" horiz-adv-x="1656" d="M82 1004q0 158 80 258t225 100t225 -100.5t80 -257.5q0 -158 -80 -257.5t-225 -99.5q-143 0 -224 100.5t-81 256.5zM174 1004q0 -123 54.5 -199t158.5 -76t158.5 76t54.5 199t-54 199.5t-159 76.5q-104 0 -158.5 -77t-54.5 -199zM334 0l887 1352h100l-887 -1352h-100z M963 346q0 158 80.5 258.5t226.5 100.5q143 0 224 -101.5t81 -257.5t-81 -256t-224 -100q-145 0 -226 100t-81 256zM1055 346q0 -123 55 -198.5t160 -75.5q104 0 158.5 75.5t54.5 198.5q0 125 -54.5 201t-158.5 76q-105 0 -160 -76t-55 -201z" />
<glyph unicode="&#x26;" horiz-adv-x="1226" d="M96 309q0 133 82 232.5t260 197.5q-96 125 -132 196t-36 146q0 121 82 204t221 83q129 0 212 -66.5t83 -193.5q0 -117 -61.5 -206t-235.5 -187q86 -113 140 -180q123 -156 198 -248q55 88 83 202.5t24 247.5l84 -8q4 -141 -30 -273t-103 -235q86 -96 144 -130t128 -34 l-25 -77q-76 0 -141 36.5t-160 137.5q-158 -174 -407 -174q-119 0 -212 41.5t-145.5 116.5t-52.5 171zM193 315q0 -113 89 -182.5t218 -69.5q110 0 200.5 40t155.5 114q-104 123 -213 260l-151 193q-164 -94 -231.5 -171t-67.5 -184zM367 1083q0 -63 27.5 -118.5 t123.5 -182.5q154 82 206 157t52 167q0 84 -54 129t-151 45q-94 0 -149 -55.5t-55 -141.5z" />
<glyph unicode="'" horiz-adv-x="397" d="M154 983v420h110l-28 -420h-82z" />
<glyph unicode="(" horiz-adv-x="624" d="M117 580q0 301 101 536.5t308 411.5l58 -60q-193 -170 -278 -382t-85 -506q0 -295 85 -507t278 -382l-58 -60q-207 176 -308 410.5t-101 538.5z" />
<glyph unicode=")" horiz-adv-x="624" d="M41 -309q193 170 277.5 382t84.5 507t-85 506.5t-277 381.5l57 60q205 -176 306.5 -411.5t101.5 -536.5t-101.5 -537t-306.5 -412z" />
<glyph unicode="*" horiz-adv-x="1112" d="M102 1135l25 79l248 -77l151 -64l-14 162v260h88v-260l-14 -162l149 64l250 77l25 -79l-246 -82l-160 -37l107 -123l151 -213l-67 -49l-156 209l-84 141l-82 -141l-156 -209l-67 49l151 213l107 123l-160 37z" />
<glyph unicode="+" horiz-adv-x="1236" d="M131 600v94h440v443h97v-443h438v-94h-438v-450h-97v450h-440z" />
<glyph unicode="," horiz-adv-x="450" d="M106 -211q72 27 118 90.5t42 122.5l-6 2q-14 -20 -47 -20q-31 0 -55.5 24.5t-24.5 65.5q0 39 27.5 66.5t66.5 27.5q54 0 83.5 -41t29.5 -109q0 -86 -45 -161.5t-131 -118.5z" />
<glyph unicode="-" horiz-adv-x="954" d="M164 492v104h629v-104h-629z" />
<glyph unicode="." horiz-adv-x="450" d="M133 76q0 41 25.5 66.5t66.5 25.5t66.5 -25.5t25.5 -66.5t-25.5 -66.5t-66.5 -25.5t-66.5 25.5t-25.5 66.5z" />
<glyph unicode="/" horiz-adv-x="811" d="M63 -143l584 1638h98l-583 -1638h-99z" />
<glyph unicode="0" horiz-adv-x="1243" d="M129 676q0 338 127 517t367 179q238 0 364.5 -179t126.5 -517t-127 -517t-364 -179q-240 0 -367 179t-127 517zM233 676q0 -293 100.5 -448.5t289.5 -155.5q188 0 287.5 155.5t99.5 448.5t-99.5 448.5t-287.5 155.5t-289 -155.5t-101 -448.5z" />
<glyph unicode="1" horiz-adv-x="747" d="M68 1081q98 25 218 105t171 166h92v-1352h-103v1024q0 59 5 186q-68 -78 -162 -136t-195 -85z" />
<glyph unicode="2" horiz-adv-x="1146" d="M102 961q18 188 138 299.5t317 111.5q201 0 318.5 -111.5t117.5 -299.5q0 -135 -75.5 -263.5t-226 -269.5t-408.5 -334v-2l135 2h618v-94h-903v84q289 225 442.5 364.5t232.5 262.5t79 250q0 145 -89 231t-243 86q-158 0 -254 -99.5t-108 -269.5z" />
<glyph unicode="3" horiz-adv-x="1134" d="M98 297l95 51q72 -274 368 -274q150 0 242 79.5t92 211.5q0 131 -83 200.5t-245 69.5h-75v94h75q143 0 219 74t76 201q0 131 -78.5 202.5t-220.5 71.5q-125 0 -208 -62.5t-113 -173.5l-97 48q47 131 159 206.5t259 75.5q191 0 298.5 -98t107.5 -254q0 -135 -73 -230.5 t-185 -105.5v-2q129 -4 209.5 -97t80.5 -229q0 -111 -57 -195.5t-158.5 -132.5t-230.5 -48q-176 0 -292 81.5t-165 235.5z" />
<glyph unicode="4" horiz-adv-x="1191" d="M84 385v78l643 889h131v-879h260v-88h-260v-385h-102v385h-672zM195 473h561v619l4 174h-4q-39 -68 -113 -179z" />
<glyph unicode="5" horiz-adv-x="1146" d="M117 297l98 49q59 -272 365 -272q156 0 251 93t95 245q-2 156 -92.5 247t-241.5 91q-240 0 -348 -152h-90l73 754h748v-95h-662l-53 -524l-4 -26h2q119 137 348 137q125 0 222.5 -53.5t150.5 -150.5t53 -224q0 -199 -122 -317.5t-326 -118.5q-375 0 -467 317z" />
<glyph unicode="6" horiz-adv-x="1189" d="M131 676q0 223 66.5 379.5t184.5 236.5t267 80q152 0 247 -66.5t146 -199.5l-94 -45q-31 100 -106.5 158.5t-198.5 58.5q-135 0 -229.5 -86t-141.5 -229.5t-47 -315.5q0 -55 11 -137h6q8 100 67.5 174t146.5 112t179 38q203 0 320.5 -116t117.5 -312q0 -195 -121 -310.5 t-325 -115.5q-240 0 -368 185t-128 511zM289 410q0 -147 93 -240.5t243 -93.5q160 0 251 90t91 244q0 150 -91.5 238.5t-246.5 88.5q-101 0 -177.5 -45t-119.5 -119.5t-43 -162.5z" />
<glyph unicode="7" horiz-adv-x="1085" d="M66 1257v95h972v-95q-250 -264 -373.5 -572t-140.5 -685h-106q33 743 508 1257h-860z" />
<glyph unicode="8" horiz-adv-x="1210" d="M127 356q0 131 81 225.5t218 129.5v2q-113 35 -176.5 116.5t-63.5 198.5q0 156 114 249t304 93q191 0 305.5 -93t114.5 -249q0 -117 -63.5 -198.5t-176.5 -116.5v-2q137 -35 218 -129.5t81 -225.5q0 -113 -59 -197.5t-169 -131.5t-251 -47q-139 0 -247.5 47t-169 132 t-60.5 197zM233 365q0 -131 101.5 -211t269.5 -80t270.5 79.5t102.5 211.5q0 133 -102.5 215t-270.5 82q-166 0 -268.5 -82t-102.5 -215zM293 1018q0 -119 85 -189.5t226 -70.5t227.5 70.5t86.5 189.5t-85 188.5t-229 69.5q-143 0 -227 -69.5t-84 -188.5z" />
<glyph unicode="9" horiz-adv-x="1220" d="M131 946q0 195 123 310.5t330 115.5q241 0 371 -186.5t130 -509.5q0 -340 -132 -518t-367 -178q-176 0 -291 77.5t-160 218.5l103 54q29 -121 111.5 -188.5t234.5 -67.5q217 0 313 174t96 461q0 51 -12 141h-6q-8 -109 -67.5 -183.5t-149.5 -111.5t-185 -37 q-201 0 -321.5 116t-120.5 312zM238 942q0 -150 92 -239t252 -89q100 0 179 45.5t123 120t44 162.5q0 147 -95.5 240.5t-246.5 93.5q-162 0 -255 -90t-93 -244z" />
<glyph unicode=":" horiz-adv-x="505" d="M162 76q0 41 25.5 66.5t66.5 25.5t66.5 -25.5t25.5 -66.5t-25.5 -66.5t-66.5 -25.5t-66.5 25.5t-25.5 66.5zM162 942q0 41 25.5 66.5t66.5 25.5t66.5 -25.5t25.5 -66.5t-25.5 -66.5t-66.5 -25.5t-66.5 25.5t-25.5 66.5z" />
<glyph unicode=";" horiz-adv-x="505" d="M137 -211q70 27 116 90.5t42 122.5l-6 2q-14 -20 -47 -20q-31 0 -55.5 24.5t-24.5 65.5q0 39 27.5 66.5t66.5 27.5q53 0 83 -41t30 -109q0 -86 -45 -161.5t-131 -118.5zM170 942q0 41 25.5 66.5t66.5 25.5t66.5 -25.5t25.5 -66.5t-25.5 -65.5t-66.5 -24.5t-66.5 24.5 t-25.5 65.5z" />
<glyph unicode="&#x3c;" horiz-adv-x="1236" d="M164 553v121l942 467v-109l-860 -418l860 -419v-109z" />
<glyph unicode="=" horiz-adv-x="1236" d="M154 377v94h929v-94h-929zM154 791v94h929v-94h-929z" />
<glyph unicode="&#x3e;" horiz-adv-x="1236" d="M131 86v109l860 419l-860 418v109l942 -467v-121z" />
<glyph unicode="?" horiz-adv-x="1044" d="M72 1024q31 164 146.5 256t309.5 92q189 0 305.5 -94t116.5 -254q0 -330 -395 -412v-241h-104v297q215 49 304 127.5t89 218.5q0 123 -86 193.5t-236 70.5q-160 0 -251 -79t-109 -224zM410 76q0 41 25.5 66.5t66.5 25.5t65.5 -25.5t24.5 -66.5t-24.5 -66.5t-65.5 -25.5 t-66.5 25.5t-25.5 66.5z" />
<glyph unicode="@" horiz-adv-x="1978" d="M123 467q0 266 109.5 469t310 314.5t465.5 111.5q284 0 472.5 -113.5t276.5 -305t88 -425.5q0 -248 -86 -390t-233 -142q-203 0 -219 243q-49 -113 -146.5 -176t-232.5 -63q-115 0 -206 55t-141.5 158.5t-50.5 242.5q0 156 61.5 274t168 180.5t233.5 62.5 q139 0 226.5 -62.5t121.5 -171.5l23 209h70l-43 -649q-10 -229 151 -230q106 0 163.5 119t57.5 340q0 217 -80.5 390t-249.5 274.5t-425 101.5q-242 0 -422 -100.5t-277.5 -284.5t-97.5 -432q0 -242 100.5 -419t278.5 -271t407 -94q147 0 263 39.5t198 107.5l47 -63 q-213 -162 -508 -162q-260 0 -458.5 105.5t-307 300t-108.5 456.5zM623 451q0 -176 89 -278.5t242 -102.5q150 0 249.5 100t109.5 266l6 82q8 162 -73 264.5t-242 102.5q-175 0 -278 -117t-103 -317z" />
<glyph unicode="A" horiz-adv-x="1280" d="M39 0l541 1352h120l541 -1352h-108l-170 424h-648l-168 -424h-108zM354 518h572l-236 590l-49 143h-2l-49 -139z" />
<glyph unicode="B" horiz-adv-x="1294" d="M213 0v1352h477q221 0 330.5 -92.5t109.5 -266.5q0 -119 -64.5 -200.5t-182.5 -106.5v-2q131 -20 207.5 -106t76.5 -213q0 -174 -123.5 -269.5t-353.5 -95.5h-477zM315 94h396q172 0 260 69.5t88 201.5q0 133 -88 201.5t-260 68.5h-396v-541zM315 729h377q330 0 330 264 t-330 264h-377v-528z" />
<glyph unicode="C" horiz-adv-x="1370" d="M127 676q0 211 76 368.5t215 242.5t321 85q406 0 525 -334l-101 -47q-47 143 -150.5 215t-267.5 72q-152 0 -267.5 -72.5t-178.5 -209t-63 -320.5t62 -320.5t176 -209t267 -72.5q164 0 279 79.5t160 227.5l102 -39q-57 -172 -199.5 -267t-341.5 -95q-184 0 -323 85 t-215 242.5t-76 368.5z" />
<glyph unicode="D" horiz-adv-x="1441" d="M213 0v1352h426q324 0 499 -171t175 -495q0 -332 -175 -509t-499 -177h-426zM315 94h332q271 0 415 152.5t144 439.5q0 274 -144 422.5t-415 148.5h-332v-1163z" />
<glyph unicode="E" horiz-adv-x="1253" d="M213 0v1352h924v-95h-822v-522h650v-96h-650v-545h854v-94h-956z" />
<glyph unicode="F" horiz-adv-x="1196" d="M213 0v1352h922v-95h-820v-522h650v-96h-650v-639h-102z" />
<glyph unicode="G" horiz-adv-x="1437" d="M127 676q0 211 77 368.5t216 242.5t323 85q207 0 338 -82t197 -250l-94 -49q-47 141 -159 214t-282 73q-152 0 -266.5 -72.5t-177.5 -209t-63 -320.5q0 -281 134 -441.5t371 -160.5q147 0 250 58t152 153.5t49 203.5v76h-459v97h555v-662h-82l-4 236 q-55 -123 -173 -189.5t-292 -66.5q-184 0 -322.5 85t-213 242.5t-74.5 368.5z" />
<glyph unicode="H" horiz-adv-x="1466" d="M213 0v1352h102v-617h836v617h102v-1352h-102v639h-836v-639h-102z" />
<glyph unicode="I" horiz-adv-x="528" d="M213 0v1352h102v-1352h-102z" />
<glyph unicode="J" horiz-adv-x="1093" d="M74 334q0 53 8 96l96 23q-6 -49 -6 -95q0 -284 289 -284h2q172 0 251 100t79 295v883h102v-906q0 -219 -112.5 -342.5t-317.5 -123.5q-186 0 -288.5 95t-102.5 259z" />
<glyph unicode="K" horiz-adv-x="1249" d="M213 0v1352h102v-758l742 758h135l-535 -547l549 -805h-125l-495 729l-271 -274v-455h-102z" />
<glyph unicode="L" horiz-adv-x="1171" d="M213 0v1352h102v-1258h811v-94h-913z" />
<glyph unicode="M" horiz-adv-x="1683" d="M213 0v1352h154l407 -1024l68 -207h2l65 205l408 1026h153v-1352h-98v1008l12 245h-2l-493 -1253h-94l-494 1253h-2l12 -245v-1008h-98z" />
<glyph unicode="N" horiz-adv-x="1464" d="M213 0v1352h129l715 -1059l102 -182l-4 170v1071h96v-1352h-127l-716 1061l-101 180h-2l6 -170v-1071h-98z" />
<glyph unicode="O" d="M127 676q0 213 76 369.5t216 241.5t331 85q190 0 330.5 -85t216 -241.5t75.5 -369.5t-75.5 -369.5t-216 -241.5t-330.5 -85t-330.5 85t-216.5 241.5t-76 369.5zM236 676q0 -184 62 -320.5t178 -209t274 -72.5t274.5 72.5t179 209t62.5 320.5t-62.5 320.5t-179.5 209 t-274 72.5q-158 0 -274 -72.5t-178 -209t-62 -320.5z" />
<glyph unicode="P" horiz-adv-x="1202" d="M213 0v1352h449q210 0 334 -105.5t124 -290.5q0 -184 -124 -290.5t-334 -106.5h-347v-559h-102zM315 655h334q176 0 269.5 78t93.5 223q0 143 -93.5 222t-269.5 79h-334v-602z" />
<glyph unicode="Q" d="M127 676q0 213 76 369.5t216 241.5t331 85q190 0 330.5 -85t216 -241.5t75.5 -369.5q0 -203 -69.5 -355.5t-197.5 -240.5t-304 -98q23 -279 297 -279q69 0 129.5 19.5t97.5 56.5l37 -94q-43 -39 -115.5 -61.5t-150.5 -22.5q-162 0 -268.5 94t-118.5 287q-178 8 -309.5 95 t-202 240.5t-70.5 358.5zM236 676q0 -184 62 -320.5t178 -209t274 -72.5t274.5 72.5t179 209t62.5 320.5t-62.5 320.5t-179.5 209t-274 72.5q-158 0 -274 -72.5t-178 -209t-62 -320.5z" />
<glyph unicode="R" horiz-adv-x="1310" d="M213 0v1352h502q203 0 322.5 -102.5t119.5 -280.5q0 -147 -86 -244.5t-235 -126.5l393 -598h-121l-387 586h-6h-400v-586h-102zM315 682h398q164 0 251 73.5t87 213.5q0 139 -87 213.5t-251 74.5h-398v-575z" />
<glyph unicode="S" horiz-adv-x="1267" d="M92 303l90 70q41 -145 165 -222t306 -77q176 0 288 71.5t112 196.5q0 109 -91.5 172.5t-316.5 101.5q-190 33 -301 80t-159 117t-48 174t60.5 192.5t172 140.5t261.5 52q381 0 510 -299l-88 -72q-51 145 -152.5 211t-267.5 66q-119 0 -207 -37t-134 -100.5t-46 -143.5 q0 -78 39 -129t132 -87t257 -64q264 -45 374.5 -131t110.5 -238q0 -109 -63.5 -192.5t-179 -129.5t-265.5 -46q-213 0 -359.5 85t-199.5 238z" />
<glyph unicode="T" horiz-adv-x="1179" d="M45 1257v95h1090v-95h-494v-1257h-102v1257h-494z" />
<glyph unicode="U" horiz-adv-x="1435" d="M197 494v858h102v-838q0 -217 106.5 -328.5t313.5 -111.5q205 0 311.5 111.5t106.5 328.5v838h102v-858q0 -250 -135 -382t-385 -132t-386 132t-136 382z" />
<glyph unicode="V" horiz-adv-x="1257" d="M47 1352h111l399 -1047l72 -209l71 209l402 1047h108l-520 -1352h-121z" />
<glyph unicode="W" horiz-adv-x="1918" d="M61 1352h111l375 -1268l354 1268h119l354 -1270l379 1270h105l-422 -1352h-127l-273 948l-75 293h-3l-75 -293l-273 -948h-127z" />
<glyph unicode="X" horiz-adv-x="1159" d="M39 0l483 694l-442 658h123l385 -574l389 574h115l-449 -656l465 -696h-121l-412 612l-415 -612h-121z" />
<glyph unicode="Y" horiz-adv-x="1114" d="M27 1352h120l410 -719l410 719h120l-479 -826v-526h-102v526z" />
<glyph unicode="Z" horiz-adv-x="1214" d="M88 0v90l891 1167h-873v95h994v-90l-891 -1168h924v-94h-1045z" />
<glyph unicode="[" horiz-adv-x="636" d="M168 -344v1839h422v-90h-326v-1659h326v-90h-422z" />
<glyph unicode="\" horiz-adv-x="811" d="M66 1495h98l584 -1638h-99z" />
<glyph unicode="]" horiz-adv-x="636" d="M47 -254h326v1659h-326v90h422v-1839h-422v90z" />
<glyph unicode="^" horiz-adv-x="1120" d="M66 727l444 768h100l447 -768h-107l-389 680l-389 -680h-106z" />
<glyph unicode="_" horiz-adv-x="1064" d="M0 -199h1065v-94h-1065v94z" />
<glyph unicode="`" horiz-adv-x="1071" d="M287 1518h110l166 -324h-86z" />
<glyph unicode="a" horiz-adv-x="1112" d="M106 240q0 238 390 307l313 55v90q0 123 -72.5 192.5t-206.5 69.5q-244 0 -327 -217l-78 58q45 121 149.5 185t255.5 64q178 0 279.5 -87t101.5 -252v-529q0 -108 93 -108h2q50 0 79 14l-6 -82q-37 -20 -100 -20q-72 0 -117 38.5t-51 135.5q-47 -82 -151.5 -128 t-219.5 -46q-152 0 -243 67.5t-91 192.5zM211 240q0 -82 63.5 -126t176.5 -44q86 0 167.5 29.5t136 88t54.5 140.5v190l-281 -51q-166 -31 -241.5 -86t-75.5 -141z" />
<glyph unicode="b" horiz-adv-x="1247" d="M182 0v1495h103v-688q47 111 146 174t231 63q217 0 342.5 -141t125.5 -391t-125.5 -391t-342.5 -141q-137 0 -237.5 66.5t-143.5 182.5l-7 -229h-92zM285 475q8 -188 106 -296.5t258 -108.5q178 0 278.5 117.5t100.5 324.5t-100.5 324.5t-278.5 117.5q-160 0 -258 -108.5 t-106 -296.5v-74z" />
<glyph unicode="c" horiz-adv-x="1116" d="M117 512q0 250 128 391t355 141q154 0 261.5 -72.5t154.5 -203.5l-96 -45q-35 113 -117 172t-205 59q-178 0 -278.5 -117.5t-100.5 -324.5q0 -209 99.5 -325.5t277.5 -116.5q131 0 222 64.5t112 178.5l94 -32q-41 -139 -154.5 -220t-271.5 -81q-227 0 -354 141t-127 391z " />
<glyph unicode="d" horiz-adv-x="1247" d="M117 512q0 250 126 391t343 141q133 0 231 -63t146 -174v688h102v-1495h-92l-6 229q-43 -117 -143.5 -183t-237.5 -66q-217 0 -343 141t-126 391zM219 512q0 -207 100.5 -324.5t278.5 -117.5q160 0 258 107.5t107 291.5v86q-10 184 -107.5 291.5t-257.5 107.5 q-178 0 -278.5 -117.5t-100.5 -324.5z" />
<glyph unicode="e" horiz-adv-x="1144" d="M117 512q0 250 124 391t347 141q209 0 327.5 -139t118.5 -368q0 -35 -4 -68h-813q10 -188 111.5 -293.5t271.5 -105.5q121 0 208 49t126 139l86 -45q-57 -113 -163.5 -173t-256.5 -60q-227 0 -355 141t-128 391zM217 561h721q-10 184 -101.5 288.5t-248.5 104.5 q-166 0 -262.5 -103t-108.5 -290z" />
<glyph unicode="f" horiz-adv-x="735" d="M47 936v88h205v172q0 143 80 226t225 83q111 0 166 -55l-29 -82q-51 45 -129 45q-100 0 -155.5 -58.5t-55.5 -168.5v-162h361v-88h-361v-936h-102v936h-205z" />
<glyph unicode="g" horiz-adv-x="1054" d="M72 -168q0 80 49 137.5t135 81.5q-61 27 -97 74t-36 104q0 74 48 125.5t130 73.5q-84 43 -129 115.5t-45 167.5q0 152 113.5 242.5t302.5 90.5q131 0 231 -47q12 98 82 156.5t174 58.5l25 -90q-96 0 -151.5 -43t-63.5 -123q116 -93 116 -242q0 -155 -113.5 -247 t-299.5 -92q-63 0 -140 14q-86 -10 -134 -50t-48 -95q0 -66 55.5 -103t165.5 -37h265q153 0 241 -63.5t88 -169.5q0 -92 -62.5 -162.5t-173 -109.5t-251.5 -39q-231 0 -354 74.5t-123 197.5zM166 -152q0 -94 102.5 -148t290.5 -54q174 0 279.5 60.5t105.5 152.5 q0 74 -66.5 115.5t-193.5 41.5h-264q-117 0 -185.5 -46t-68.5 -122zM229 711q0 -115 84 -182.5t230 -67.5q143 0 227 67.5t84 182.5t-84 181t-227 66t-228.5 -66.5t-85.5 -180.5z" />
<glyph unicode="h" horiz-adv-x="1224" d="M182 0v1495h103v-674q49 109 148 166t229 57q176 0 283.5 -98t107.5 -280v-666h-103v633q0 162 -81 242.5t-218 80.5q-98 0 -182 -46t-134 -132t-50 -200v-578h-103z" />
<glyph unicode="i" horiz-adv-x="468" d="M147 1309q0 39 24 62.5t62 23.5q39 0 62.5 -23.5t23.5 -62.5t-23.5 -62.5t-62.5 -23.5q-38 0 -62 23.5t-24 62.5zM182 0v1024h103v-1024h-103z" />
<glyph unicode="j" horiz-adv-x="468" d="M-184 -383l24 96q27 -25 67 -40t85 -15q88 0 139 59.5t51 173.5v1133h103v-1141q0 -160 -84 -241.5t-207 -81.5q-53 0 -100.5 15t-77.5 42zM147 1309q0 37 26 61.5t60 24.5q37 0 61.5 -24.5t24.5 -61.5q0 -35 -24.5 -60.5t-61.5 -25.5q-35 0 -60.5 25.5t-25.5 60.5z" />
<glyph unicode="k" horiz-adv-x="1079" d="M182 0v1495h103v-1057l608 586h133l-424 -410l440 -614h-124l-392 543l-241 -234v-309h-103z" />
<glyph unicode="l" horiz-adv-x="561" d="M174 238v1257h102v-1247q0 -94 30 -133t100 -39q41 0 69.5 6t65.5 22l-15 -98q-55 -26 -129 -26h-6q-111 0 -164 62t-53 196z" />
<glyph unicode="m" horiz-adv-x="1966" d="M182 0v1024h92l7 -205q49 106 149 165.5t223 59.5q131 0 229.5 -61t137.5 -178q41 113 150.5 177.5t238.5 64.5q170 0 277.5 -98.5t107.5 -282.5v-664h-102v653q0 147 -80 224t-215 77q-98 0 -179 -47t-129.5 -131t-48.5 -188v-590h-102v653q0 147 -80 224t-215 77 q-94 0 -176 -45t-132 -131t-50 -198v-580h-103z" />
<glyph unicode="n" horiz-adv-x="1224" d="M182 0v1024h92l5 -207q49 111 150 169t233 58q176 0 283.5 -98t107.5 -282v-664h-103v631q0 164 -79.5 243.5t-219.5 79.5q-98 0 -182 -45t-134 -131t-50 -200v-578h-103z" />
<glyph unicode="o" horiz-adv-x="1208" d="M117 512q0 248 130 390t357 142t357.5 -142t130.5 -390t-130.5 -390t-357.5 -142t-357 142t-130 390zM219 512q0 -207 102.5 -325.5t282.5 -118.5t282.5 118.5t102.5 325.5t-102.5 325.5t-282.5 118.5t-282.5 -118.5t-102.5 -325.5z" />
<glyph unicode="p" horiz-adv-x="1247" d="M182 -430v1454h92l7 -231q43 119 142 185t239 66q217 0 342.5 -141t125.5 -391t-125.5 -391t-342.5 -141q-131 0 -230.5 63t-146.5 174v-647h-103zM285 475q8 -188 106 -296.5t258 -108.5q178 0 278.5 117.5t100.5 324.5t-100.5 324.5t-278.5 117.5q-160 0 -258 -108.5 t-106 -296.5v-74z" />
<glyph unicode="q" horiz-adv-x="1249" d="M119 512q0 250 126 391t343 141q137 0 237.5 -66.5t143.5 -182.5l6 229h92v-1454h-102v647q-47 -111 -145.5 -174t-231.5 -63q-217 0 -343 141t-126 391zM221 512q0 -207 100.5 -324.5t278.5 -117.5q160 0 257 107.5t108 291.5v86q-8 184 -106.5 291.5t-258.5 107.5 q-178 0 -278.5 -117.5t-100.5 -324.5z" />
<glyph unicode="r" horiz-adv-x="774" d="M182 0v1024h86l13 -209q43 109 128 169t203 60h5q79 0 124 -34l-26 -97q-47 37 -131 37q-78 0 -146.5 -48t-110.5 -135t-42 -194v-573h-103z" />
<glyph unicode="s" horiz-adv-x="1034" d="M88 219l84 55q31 -102 125 -153t231 -51q139 0 218 53t79 141q0 76 -67.5 121t-237.5 76q-215 39 -303 104.5t-88 186.5q0 80 49 147.5t139.5 106t204.5 38.5q162 0 259.5 -61t133.5 -188l-88 -52q-57 211 -305 211q-82 0 -148.5 -26.5t-104.5 -70.5t-38 -95 q0 -84 70 -131t246 -78q209 -35 295 -100.5t86 -184.5q0 -131 -111.5 -209.5t-300.5 -78.5q-156 0 -270.5 61t-157.5 178z" />
<glyph unicode="t" horiz-adv-x="772" d="M45 936v88h205v256l102 29v-285h385v-88h-385v-666q0 -96 46 -146t134 -50q102 0 179 76l37 -84q-41 -41 -100.5 -63.5t-131.5 -22.5q-125 0 -195.5 68.5t-70.5 207.5v680h-205z" />
<glyph unicode="u" horiz-adv-x="1214" d="M172 348v676h102v-651q0 -303 283 -303q113 0 198 49t130 133t45 184v588h102v-1024h-92l-4 203q-51 -109 -153.5 -166t-241.5 -57q-168 0 -268.5 93t-100.5 275z" />
<glyph unicode="v" horiz-adv-x="1028" d="M35 1024h115l366 -920l369 920h108l-428 -1024h-102z" />
<glyph unicode="w" horiz-adv-x="1679" d="M68 1024h114l287 -903l319 903h103l317 -903l289 903h115l-350 -1024h-103l-323 895l-316 -895h-102z" />
<glyph unicode="x" horiz-adv-x="1032" d="M49 0l406 524l-385 500h131l321 -418l312 418h122l-376 -494l407 -530h-129l-346 449l-340 -449h-123z" />
<glyph unicode="y" horiz-adv-x="1044" d="M12 -365l39 89q49 -74 156 -74q72 0 122 40t93 146l65 164l-106 254l-326 770h117l313 -776l52 -137l55 147l301 766h111l-494 -1212q-57 -139 -127 -195.5t-176 -56.5q-127 0 -195 75z" />
<glyph unicode="z" horiz-adv-x="1034" d="M94 936v88h830v-80l-584 -721l-123 -137l184 2h547v-88h-848v80l602 739l107 119l-162 -2h-553z" />
<glyph unicode="{" horiz-adv-x="630" d="M39 535v90q117 0 174 50t57 152v457q0 119 70 181.5t213 62.5l14 -84q-100 0 -150 -39t-50 -113v-473q0 -94 -51.5 -155.5t-147.5 -83.5q96 -23 147.5 -84.5t51.5 -155.5v-473q-1 -152 200 -152l-14 -84q-283 0 -283 242v459q0 104 -57 153.5t-174 49.5z" />
<glyph unicode="|" horiz-adv-x="423" d="M168 -344v1839h90v-1839h-90z" />
<glyph unicode="}" horiz-adv-x="630" d="M63 -285q201 0 201 152v473q0 94 51.5 155.5t145.5 84.5q-94 23 -145.5 85t-51.5 154v473q0 74 -50 113t-151 39l15 84q143 0 212.5 -62.5t69.5 -181.5v-457q0 -102 57.5 -152t174.5 -50v-90q-117 0 -174.5 -49.5t-57.5 -153.5v-459q0 -242 -282 -242z" />
<glyph unicode="~" horiz-adv-x="1046" d="M88 539q25 252 234 252q63 0 111 -20.5t112 -61.5q53 -35 91 -52.5t83 -17.5q115 0 143 158h96q-24 -252 -231 -252q-66 0 -112 20.5t-111 61.5q-53 35 -91 52t-83 17q-117 0 -144 -157h-98z" />
<glyph unicode="&#xa1;" horiz-adv-x="454" d="M135 948q0 41 25.5 66.5t66.5 25.5t66.5 -25.5t25.5 -66.5t-25.5 -66.5t-66.5 -25.5t-66.5 25.5t-25.5 66.5zM174 328l12 307h82l13 -307v-656h-107v656z" />
<glyph unicode="&#xa2;" horiz-adv-x="1132" d="M127 512q0 231 112.5 371.5t313.5 158.5v187h86v-185q143 -8 241.5 -79.5t143.5 -196.5l-96 -45q-31 109 -105.5 169t-183.5 66v-892q117 8 198 73.5t105 173.5l92 -30q-37 -133 -142.5 -213t-252.5 -90v-185h-86v187q-201 18 -313.5 157.5t-112.5 372.5zM225 512 q0 -195 85 -311.5t243 -134.5v890q-158 -18 -243 -133.5t-85 -310.5z" />
<glyph unicode="&#xa3;" horiz-adv-x="1230" d="M84 137q0 70 61.5 116t165.5 46q78 0 138.5 -23.5t117.5 -64.5q27 55 27 125q0 63 -23.5 121.5t-78.5 136.5h-308v84h242q-70 92 -98.5 158.5t-28.5 140.5q0 115 52 205t146.5 140t215.5 50q156 0 254 -80t129 -229l-90 -47q-23 125 -99 194.5t-198 69.5 q-145 0 -230.5 -79t-85.5 -210q0 -68 29 -131t106 -170l11 -12h405v-84h-350q43 -70 61.5 -128t18.5 -124q0 -92 -45 -176q68 -51 120 -77t123 -26q100 0 149.5 52.5t51.5 160.5h84q0 -147 -72.5 -221.5t-199.5 -74.5q-88 0 -153.5 30.5t-149.5 89.5q-51 -55 -125 -87.5 t-162 -32.5q-96 0 -153.5 43t-57.5 114zM178 137q0 -41 35 -63.5t92 -22.5q68 0 124 24.5t95 67.5q-55 37 -104 57.5t-107 20.5q-63 0 -99 -22.5t-36 -61.5z" />
<glyph unicode="&#xa4;" horiz-adv-x="1300" d="M135 225l195 197q-78 106 -78 256q0 147 78 252l-195 192l68 68l192 -193q106 84 256 84q154 0 258 -86l191 195l65 -68l-192 -194q76 -104 76 -250q0 -154 -80 -258l196 -195l-65 -65l-197 192q-104 -82 -252 -82q-150 0 -256 84l-192 -194zM354 678q0 -141 82 -228.5 t215 -87.5t214 87.5t81 228.5q0 139 -81 225t-214 86t-215 -86t-82 -225z" />
<glyph unicode="&#xa5;" horiz-adv-x="1220" d="M80 1352h119l344 -613l65 -131h4l66 131l344 613h119l-459 -774l61 4h322v-78h-410v-187h410v-73h-410v-244h-92v244h-405v73h405v187h-405v78h321l58 -4z" />
<glyph unicode="&#xa6;" horiz-adv-x="450" d="M180 -344v745h90v-745h-90zM180 750v745h90v-745h-90z" />
<glyph unicode="&#xa7;" horiz-adv-x="1165" d="M82 596q0 92 58.5 159.5t152.5 106.5q-49 39 -72.5 91.5t-23.5 121.5q0 82 48 149.5t140 107.5t219 40q289 0 393 -190l-71 -62q-82 162 -324 162q-143 0 -223 -54t-80 -145q0 -68 35 -112.5t116.5 -74.5t225.5 -50q160 -23 253 -59.5t134 -93t41 -142.5 q0 -92 -59.5 -159.5t-153.5 -106.5q51 -39 74.5 -91.5t23.5 -121.5q0 -82 -48 -149.5t-139 -107.5t-214 -40q-293 0 -402 190l78 64q37 -84 118 -124t206 -40q141 0 220 54t79 144q0 68 -35 113t-117 75t-225 50q-160 23 -253 59.5t-134 93t-41 142.5zM184 604 q0 -88 77 -135t274 -74q156 -20 258 -59q208 68 208 207q0 88 -77.5 135t-274.5 74q-168 23 -258 59q-207 -66 -207 -207z" />
<glyph unicode="&#xa8;" horiz-adv-x="1071" d="M262 1290q0 37 23.5 60.5t60.5 23.5t59.5 -23.5t22.5 -60.5t-22.5 -59.5t-59.5 -22.5t-60.5 22.5t-23.5 59.5zM649 1290q0 37 23.5 60.5t60.5 23.5t60.5 -23.5t23.5 -60.5t-23.5 -59.5t-60.5 -22.5t-60.5 22.5t-23.5 59.5z" />
<glyph unicode="&#xa9;" horiz-adv-x="1656" d="M127 676q0 207 87 365.5t245.5 244.5t367.5 86t368 -86t246 -243.5t87 -366.5t-87 -366.5t-246 -243.5t-368 -86t-367.5 86t-245.5 244.5t-87 365.5zM221 676q0 -182 75 -321.5t212 -215.5t319 -76t319.5 76t213.5 215.5t76 321.5t-76 321.5t-213 215t-320 75.5 q-182 0 -319 -75.5t-212 -215t-75 -321.5zM475 672q0 176 99.5 277.5t273.5 101.5q117 0 195.5 -51.5t115.5 -147.5l-76 -39q-55 160 -237 160q-133 0 -208 -80t-75 -221t75 -221t208 -80q94 0 159.5 45t90.5 127l73 -31q-35 -102 -118.5 -160.5t-202.5 -58.5 q-174 0 -273.5 101.5t-99.5 277.5z" />
<glyph unicode="&#xaa;" horiz-adv-x="753" d="M53 838q0 82 63.5 132t198.5 74l211 37v45q0 78 -47 121t-135 43q-82 0 -134 -31.5t-79 -103.5l-65 35q25 82 97.5 127t184.5 45q127 0 196.5 -59.5t69.5 -172.5v-319q0 -76 66 -76q31 0 51 10l-6 -61q-33 -14 -68 -14q-109 0 -120 112q-33 -53 -104 -82.5t-157 -29.5 q-102 0 -162.5 44t-60.5 124zM66 432v72h632v-72h-632zM143 844q0 -102 152 -103q84 0 157.5 44t73.5 120v115l-180 -35q-106 -20 -154.5 -53t-48.5 -88z" />
<glyph unicode="&#xab;" horiz-adv-x="901" d="M100 543l275 401h114l-278 -401l278 -402h-114zM405 543l275 401h114l-278 -401l278 -402h-114z" />
<glyph unicode="&#xac;" horiz-adv-x="1236" d="M137 600v94h963v-383h-103v289h-860z" />
<glyph unicode="&#xad;" horiz-adv-x="954" d="M164 492v104h629v-104h-629z" />
<glyph unicode="&#xae;" horiz-adv-x="1656" d="M127 676q0 207 87 365.5t245.5 244.5t367.5 86t368 -86t246 -243.5t87 -366.5t-87 -366.5t-246 -243.5t-368 -86t-367.5 86t-245.5 244.5t-87 365.5zM221 676q0 -182 75 -321.5t212 -215.5t319 -76q183 0 320 76t213 215.5t76 321.5t-76 321.5t-213 215t-320 75.5 q-182 0 -319 -75.5t-212 -215t-75 -321.5zM571 293v758h314q125 0 195.5 -59.5t70.5 -166.5q0 -90 -51 -146t-144 -73l209 -313h-100l-201 307h-205v-307h-88zM659 668h226q180 4 180 157q0 156 -180 156h-226v-313z" />
<glyph unicode="&#xaf;" horiz-adv-x="1071" d="M209 1229v86h655v-86h-655z" />
<glyph unicode="&#xb0;" horiz-adv-x="856" d="M115 1063q0 137 87 223t226 86t226 -86t87 -223q0 -135 -88 -222t-225 -87q-139 0 -226 87t-87 222zM205 1063q0 -98 62.5 -161.5t160.5 -63.5t159.5 63.5t61.5 161.5t-61.5 161.5t-159.5 63.5t-160.5 -63.5t-62.5 -161.5z" />
<glyph unicode="&#xb1;" horiz-adv-x="1236" d="M137 0v94h963v-94h-963zM137 735v96h434v463h97v-463h432v-96h-432v-465h-97v465h-434z" />
<glyph unicode="&#xb2;" horiz-adv-x="712" d="M59 1247q8 119 85 188.5t204 69.5q131 0 205 -70.5t74 -181.5q0 -170 -275 -376l-153 -121v-2q41 4 94 4h358v-76h-573v68q104 80 209 165q129 102 187 179t58 155q0 82 -50 131.5t-136 49.5q-92 0 -146.5 -56.5t-58.5 -152.5z" />
<glyph unicode="&#xb3;" horiz-adv-x="688" d="M39 862l86 39q33 -156 207 -156q84 0 135 44.5t51 119.5q0 70 -46 108t-136 38h-51v69h47q80 0 123 42t43 110q0 72 -44 113t-124 41q-74 0 -121 -36t-62 -100l-84 31q25 86 96.5 133t174.5 47q123 0 191.5 -60.5t68.5 -158.5q0 -78 -45 -130t-111 -64v-2 q72 -4 123 -56.5t51 -134.5q0 -102 -78.5 -165.5t-203.5 -63.5q-115 0 -188.5 49t-102.5 143z" />
<glyph unicode="&#xb4;" horiz-adv-x="1071" d="M510 1194l164 324h112l-192 -324h-84z" />
<glyph unicode="&#xb5;" horiz-adv-x="1189" d="M166 -430v1454h102v-651q0 -154 76 -228.5t209 -74.5q156 0 258 91t113 230v633h102v-1024h-86l-8 207q-49 -106 -151.5 -166.5t-245.5 -60.5q-86 0 -155 34.5t-112 104.5v-549h-102z" />
<glyph unicode="&#xb6;" horiz-adv-x="1210" d="M74 901q0 135 64.5 237.5t181 158t272.5 55.5h442v-1557h-92v1471h-274v-1471h-95v658q-150 0 -262 56t-174.5 157.5t-62.5 234.5zM172 901q0 -168 107.5 -265t293.5 -97v727q-186 0 -293.5 -98.5t-107.5 -266.5z" />
<glyph unicode="&#xb7;" horiz-adv-x="430" d="M123 731q0 41 25.5 66.5t66.5 25.5t66.5 -25.5t25.5 -66.5t-25.5 -65.5t-66.5 -24.5t-66.5 24.5t-25.5 65.5z" />
<glyph unicode="&#xb8;" horiz-adv-x="1071" d="M348 -350l41 71q59 -72 158 -71q57 0 95 35.5t38 95.5q0 66 -45 115t-172 110l69 29q121 -47 179.5 -116t58.5 -150q0 -84 -57.5 -140.5t-153.5 -56.5q-70 0 -120 18.5t-91 59.5z" />
<glyph unicode="&#xb9;" horiz-adv-x="450" d="M20 1257v78q61 16 133 62.5t103 97.5h80v-813h-92v571q0 66 6 140q-45 -47 -105.5 -83t-124.5 -53z" />
<glyph unicode="&#xba;" horiz-adv-x="731" d="M61 1016q0 346 306 346q303 0 303 -346t-303 -346q-306 0 -306 346zM82 432v72h567v-72h-567zM154 1016q0 -137 52 -205t161 -68q108 0 159.5 68t51.5 205t-51.5 205.5t-159.5 68.5q-109 0 -161 -68.5t-52 -205.5z" />
<glyph unicode="&#xbb;" horiz-adv-x="894" d="M100 141l279 402l-279 401h115l274 -401l-274 -402h-115zM406 141l278 402l-278 401h114l275 -401l-275 -402h-114z" />
<glyph unicode="&#xbc;" horiz-adv-x="1466" d="M20 1124v78q61 16 133 62.5t103 97.5h80v-813h-92v571q0 41 4 140q-45 -47 -105.5 -83t-122.5 -53zM148 0l965 1352h104l-965 -1352h-104zM787 215v53l383 537h102v-522h156v-68h-156v-223h-80v223h-405zM877 283h315v321q0 41 4 123h-4l-24 -41q-8 -12 -18.5 -28.5 t-22.5 -32.5z" />
<glyph unicode="&#xbd;" horiz-adv-x="1626" d="M20 1124v78q61 16 133 62.5t103 97.5h80v-813h-92v571q0 41 4 140q-45 -47 -105.5 -83t-122.5 -53zM148 0l965 1352h104l-965 -1352h-104zM972 557q8 119 85 188.5t204 69.5q131 0 205 -70.5t74 -181.5q0 -170 -275 -377l-153 -120v-3q41 4 94 5h358v-76h-573v67 q104 80 209 166q129 102 187 179t58 155q0 82 -50 131t-136 49q-92 0 -146.5 -56t-58.5 -153z" />
<glyph unicode="&#xbe;" horiz-adv-x="1705" d="M39 729l86 39q33 -156 207 -156q84 0 135 44t51 120q0 70 -46 108t-136 38h-51v69h47q80 0 123 42t43 110q0 72 -44 112.5t-124 40.5q-74 0 -121 -35.5t-62 -99.5l-84 31q25 86 96.5 133t174.5 47q123 0 191.5 -60.5t68.5 -158.5q0 -78 -45 -130t-111 -65v-2 q72 -4 123 -56t51 -134q0 -102 -78.5 -165.5t-203.5 -63.5q-115 0 -188.5 49t-102.5 143zM385 0l965 1352h104l-965 -1352h-104zM1024 215v53l383 537h102v-522h156v-68h-156v-223h-80v223h-405zM1114 283h315v321q0 41 4 123h-4l-24 -41q-8 -12 -18.5 -28.5t-22.5 -32.5z " />
<glyph unicode="&#xbf;" horiz-adv-x="1034" d="M88 -6q0 332 395 414v241h107v-297q-217 -51 -306 -129t-89 -217q0 -123 86 -193.5t235 -70.5q160 0 251 79t110 224l90 -51q-31 -164 -146.5 -255t-310.5 -91q-186 0 -304 93t-118 253zM446 944q0 41 25 66.5t66 25.5t66.5 -25.5t25.5 -66.5t-25.5 -66.5t-66.5 -25.5 t-66 25.5t-25 66.5z" />
<glyph unicode="&#xc0;" horiz-adv-x="1280" d="M39 0l541 1352h120l541 -1352h-108l-170 424h-648l-168 -424h-108zM354 518h572l-236 590l-49 143h-2l-49 -139zM420 1825h121l133 -303h-84z" />
<glyph unicode="&#xc1;" horiz-adv-x="1280" d="M39 0l541 1352h120l541 -1352h-108l-170 424h-648l-168 -424h-108zM354 518h572l-236 590l-49 143h-2l-49 -139zM594 1522l133 303h121l-170 -303h-84z" />
<glyph unicode="&#xc2;" horiz-adv-x="1280" d="M39 0l541 1352h120l541 -1352h-108l-170 424h-648l-168 -424h-108zM354 518h572l-236 590l-49 143h-2l-49 -139zM354 1513l228 320h118l228 -320h-94l-193 250l-190 -250h-97z" />
<glyph unicode="&#xc3;" horiz-adv-x="1280" d="M39 0l541 1352h120l541 -1352h-108l-170 424h-648l-168 -424h-108zM293 1536q14 115 62 170.5t143 55.5q55 0 91 -19.5t79 -58.5q33 -31 58.5 -46.5t57.5 -15.5q55 0 82 34t41 108h82q-14 -115 -63 -170.5t-140 -55.5q-57 0 -93 19.5t-79 58.5q-33 31 -58.5 46.5 t-59.5 15.5q-55 0 -81 -34t-40 -108h-82zM354 518h572l-236 590l-49 143h-2l-49 -139z" />
<glyph unicode="&#xc4;" horiz-adv-x="1280" d="M39 0l541 1352h120l541 -1352h-108l-170 424h-648l-168 -424h-108zM354 518h572l-236 590l-49 143h-2l-49 -139zM362 1618q0 37 23.5 60.5t60.5 23.5t59.5 -23.5t22.5 -60.5t-22.5 -59.5t-59.5 -22.5t-60.5 22.5t-23.5 59.5zM749 1618q0 37 23.5 60.5t60.5 23.5 t60.5 -23.5t23.5 -60.5t-23.5 -59.5t-60.5 -22.5t-60.5 22.5t-23.5 59.5z" />
<glyph unicode="&#xc5;" horiz-adv-x="1280" d="M39 0l522 1303q-59 20 -92 68t-33 116q0 86 56.5 140t148.5 54t148.5 -54t56.5 -140q0 -68 -33 -116t-92 -68l520 -1303h-108l-170 424h-648l-168 -424h-108zM354 518h572l-236 590l-49 143h-2l-49 -139zM510 1487q0 -57 36 -93t95 -36q57 0 94 36t37 93t-37 92t-94 35 q-59 0 -95 -35t-36 -92z" />
<glyph unicode="&#xc6;" horiz-adv-x="1888" d="M-2 0l823 1352h951v-95h-758v-524h590v-94h-590v-545h788v-94h-891v475h-510l-286 -475h-117zM459 571h452v686h-41z" />
<glyph unicode="&#xc7;" horiz-adv-x="1370" d="M127 676q0 211 76 368.5t215 242.5t321 85q406 0 525 -334l-101 -47q-47 143 -150.5 215t-267.5 72q-152 0 -267.5 -72.5t-178.5 -209t-63 -320.5t62 -320.5t176 -209t267 -72.5q164 0 279 79.5t160 227.5l102 -39q-51 -156 -174 -249t-295 -109q133 -88 133 -215 q0 -84 -57.5 -140.5t-153.5 -56.5q-70 0 -120 18.5t-91 59.5l41 71q59 -72 158 -71q57 0 95 35.5t38 95.5q0 59 -36 103t-132 98q-170 12 -297 100t-195.5 240.5t-68.5 353.5z" />
<glyph unicode="&#xc8;" horiz-adv-x="1253" d="M213 0v1352h924v-95h-822v-522h650v-96h-650v-545h854v-94h-956zM487 1825h121l133 -303h-84z" />
<glyph unicode="&#xc9;" horiz-adv-x="1253" d="M213 0v1352h924v-95h-822v-522h650v-96h-650v-545h854v-94h-956zM616 1522l136 303h118l-168 -303h-86z" />
<glyph unicode="&#xca;" horiz-adv-x="1253" d="M213 0v1352h924v-95h-822v-522h650v-96h-650v-545h854v-94h-956zM387 1513l227 320h119l228 -320h-95l-192 250l-191 -250h-96z" />
<glyph unicode="&#xcb;" horiz-adv-x="1253" d="M213 0v1352h924v-95h-822v-522h650v-96h-650v-545h854v-94h-956zM395 1618q0 37 23.5 60.5t60.5 23.5t59.5 -23.5t22.5 -60.5t-22.5 -59.5t-59.5 -22.5t-60.5 22.5t-23.5 59.5zM782 1618q0 37 23.5 60.5t60.5 23.5t60.5 -23.5t23.5 -60.5t-23.5 -59.5t-60.5 -22.5 t-60.5 22.5t-23.5 59.5z" />
<glyph unicode="&#xcc;" horiz-adv-x="528" d="M43 1825h121l133 -303h-84zM213 0v1352h102v-1352h-102z" />
<glyph unicode="&#xcd;" horiz-adv-x="528" d="M213 0v1352h102v-1352h-102zM217 1522l133 303h121l-170 -303h-84z" />
<glyph unicode="&#xce;" horiz-adv-x="528" d="M-23 1513l228 320h119l227 -320h-94l-193 250l-190 -250h-97zM213 0v1352h102v-1352h-102z" />
<glyph unicode="&#xcf;" horiz-adv-x="528" d="M31 1618q0 37 22.5 60.5t59.5 23.5q39 0 61.5 -23.5t22.5 -60.5t-22.5 -59.5t-61.5 -22.5q-37 0 -59.5 22.5t-22.5 59.5zM213 0v1352h102v-1352h-102zM332 1618q0 37 22.5 60.5t59.5 23.5t60.5 -23.5t23.5 -60.5t-23.5 -59.5t-60.5 -22.5t-59.5 22.5t-22.5 59.5z" />
<glyph unicode="&#xd0;" horiz-adv-x="1464" d="M33 643v80h205v629h426q325 0 499 -171t174 -495q0 -332 -174 -509t-499 -177h-426v643h-205zM340 94h334q268 0 412.5 153.5t144.5 438.5q0 274 -144.5 422.5t-412.5 148.5h-334v-534h414v-80h-414v-549z" />
<glyph unicode="&#xd1;" horiz-adv-x="1464" d="M213 0v1352h129l715 -1059l102 -182l-4 170v1071h96v-1352h-127l-716 1061l-101 180h-2l6 -170v-1071h-98zM395 1536q14 115 62 170.5t143 55.5q55 0 91 -19.5t79 -58.5q33 -31 58.5 -46.5t57.5 -15.5q55 0 82 34t41 108h82q-14 -115 -63 -170.5t-140 -55.5 q-57 0 -93 19.5t-79 58.5q-33 31 -58.5 46.5t-59.5 15.5q-55 0 -81 -34t-40 -108h-82z" />
<glyph unicode="&#xd2;" d="M127 676q0 213 76 369.5t216 241.5t331 85q190 0 330.5 -85t216 -241.5t75.5 -369.5t-75.5 -369.5t-216 -241.5t-330.5 -85t-330.5 85t-216.5 241.5t-76 369.5zM236 676q0 -184 62 -320.5t178 -209t274 -72.5t274.5 72.5t179 209t62.5 320.5t-62.5 320.5t-179.5 209 t-274 72.5q-158 0 -274 -72.5t-178 -209t-62 -320.5zM528 1825h121l133 -303h-84z" />
<glyph unicode="&#xd3;" d="M127 676q0 213 76 369.5t216 241.5t331 85q190 0 330.5 -85t216 -241.5t75.5 -369.5t-75.5 -369.5t-216 -241.5t-330.5 -85t-330.5 85t-216.5 241.5t-76 369.5zM236 676q0 -184 62 -320.5t178 -209t274 -72.5t274.5 72.5t179 209t62.5 320.5t-62.5 320.5t-179.5 209 t-274 72.5q-158 0 -274 -72.5t-178 -209t-62 -320.5zM702 1522l134 303h120l-170 -303h-84z" />
<glyph unicode="&#xd4;" d="M127 676q0 213 76 369.5t216 241.5t331 85q190 0 330.5 -85t216 -241.5t75.5 -369.5t-75.5 -369.5t-216 -241.5t-330.5 -85t-330.5 85t-216.5 241.5t-76 369.5zM236 676q0 -184 62 -320.5t178 -209t274 -72.5t274.5 72.5t179 209t62.5 320.5t-62.5 320.5t-179.5 209 t-274 72.5q-158 0 -274 -72.5t-178 -209t-62 -320.5zM463 1513l227 320h119l227 -320h-94l-192 250l-191 -250h-96z" />
<glyph unicode="&#xd5;" d="M127 676q0 213 76 369.5t216 241.5t331 85q190 0 330.5 -85t216 -241.5t75.5 -369.5t-75.5 -369.5t-216 -241.5t-330.5 -85t-330.5 85t-216.5 241.5t-76 369.5zM236 676q0 -184 62 -320.5t178 -209t274 -72.5t274.5 72.5t179 209t62.5 320.5t-62.5 320.5t-179.5 209 t-274 72.5q-158 0 -274 -72.5t-178 -209t-62 -320.5zM402 1536q14 115 62 170.5t143 55.5q55 0 91 -19.5t79 -58.5q33 -31 58.5 -46.5t57.5 -15.5q55 0 82 34t41 108h82q-14 -115 -63 -170.5t-140 -55.5q-57 0 -93 19.5t-79 58.5q-33 31 -58.5 46.5t-59.5 15.5 q-55 0 -81 -34t-40 -108h-82z" />
<glyph unicode="&#xd6;" d="M127 676q0 213 76 369.5t216 241.5t331 85q190 0 330.5 -85t216 -241.5t75.5 -369.5t-75.5 -369.5t-216 -241.5t-330.5 -85t-330.5 85t-216.5 241.5t-76 369.5zM236 676q0 -184 62 -320.5t178 -209t274 -72.5t274.5 72.5t179 209t62.5 320.5t-62.5 320.5t-179.5 209 t-274 72.5q-158 0 -274 -72.5t-178 -209t-62 -320.5zM471 1618q0 37 23.5 60.5t60.5 23.5t59.5 -23.5t22.5 -60.5t-22.5 -59.5t-59.5 -22.5t-60.5 22.5t-23.5 59.5zM858 1618q0 37 23.5 60.5t60.5 23.5t60.5 -23.5t23.5 -60.5t-23.5 -59.5t-60.5 -22.5t-60.5 22.5 t-23.5 59.5z" />
<glyph unicode="&#xd7;" horiz-adv-x="1236" d="M207 305l340 340l-340 340l69 72l342 -342l340 342l70 -72l-340 -340l340 -340l-70 -72l-340 342l-342 -342z" />
<glyph unicode="&#xd8;" d="M127 676q0 213 76 369.5t216 241.5t331 85q219 0 372 -112l103 145h98l-141 -197q92 -92 141 -228t49 -304q0 -213 -75.5 -369.5t-216 -241.5t-330.5 -85q-215 0 -365 106l-111 -156h-96l146 207q-94 92 -145.5 229.5t-51.5 309.5zM236 676q0 -146 37.5 -260.5 t111.5 -192.5l678 955q-129 100 -313 100q-158 0 -274 -72.5t-178 -209t-62 -320.5zM444 170q129 -96 306 -96q157 0 274 72.5t179.5 209t62.5 320.5q0 141 -38 253.5t-108 192.5z" />
<glyph unicode="&#xd9;" horiz-adv-x="1435" d="M197 494v858h102v-838q0 -217 106.5 -328.5t313.5 -111.5q205 0 311.5 111.5t106.5 328.5v838h102v-858q0 -250 -135 -382t-385 -132t-386 132t-136 382zM516 1825h121l133 -303h-84z" />
<glyph unicode="&#xda;" horiz-adv-x="1435" d="M197 494v858h102v-838q0 -217 106.5 -328.5t313.5 -111.5q205 0 311.5 111.5t106.5 328.5v838h102v-858q0 -250 -135 -382t-385 -132t-386 132t-136 382zM672 1522l133 303h121l-170 -303h-84z" />
<glyph unicode="&#xdb;" horiz-adv-x="1435" d="M197 494v858h102v-838q0 -217 106.5 -328.5t313.5 -111.5q205 0 311.5 111.5t106.5 328.5v838h102v-858q0 -250 -135 -382t-385 -132t-386 132t-136 382zM432 1513l227 320h119l228 -320h-95l-192 250l-191 -250h-96z" />
<glyph unicode="&#xdc;" horiz-adv-x="1435" d="M197 494v858h102v-838q0 -217 106.5 -328.5t313.5 -111.5q205 0 311.5 111.5t106.5 328.5v838h102v-858q0 -250 -135 -382t-385 -132t-386 132t-136 382zM440 1618q0 37 23.5 60.5t60.5 23.5t59.5 -23.5t22.5 -60.5t-22.5 -59.5t-59.5 -22.5t-60.5 22.5t-23.5 59.5z M827 1618q0 37 23.5 60.5t60.5 23.5t60.5 -23.5t23.5 -60.5t-23.5 -59.5t-60.5 -22.5t-60.5 22.5t-23.5 59.5z" />
<glyph unicode="&#xdd;" horiz-adv-x="1114" d="M27 1352h120l410 -719l410 719h120l-479 -826v-526h-102v526zM510 1522l133 303h121l-170 -303h-84z" />
<glyph unicode="&#xde;" horiz-adv-x="1226" d="M213 0v1352h102v-258h324q244 0 366.5 -102.5t122.5 -299.5q0 -195 -123.5 -297t-365.5 -102h-324v-293h-102zM315 387h340q367 0 367 305q0 307 -367 307h-340v-612z" />
<glyph unicode="&#xdf;" horiz-adv-x="1208" d="M182 0v1036q0 469 455 469q133 0 223 -50t134 -134t44 -184q0 -90 -37.5 -169t-110.5 -127t-173 -50v-5q186 -2 282.5 -115.5t96.5 -281.5q0 -115 -50.5 -208t-144.5 -147t-225 -54q-66 0 -125 21.5t-90 55.5l35 80q66 -66 184 -65q145 0 230 90t85 237q0 164 -100 249 t-279 85h-84v94h84q145 0 231.5 83t86.5 223q0 135 -80 206.5t-227 71.5q-178 0 -260 -102.5t-82 -309.5v-999h-103z" />
<glyph unicode="&#xe0;" horiz-adv-x="1112" d="M106 240q0 238 390 307l313 55v90q0 123 -72.5 192.5t-206.5 69.5q-244 0 -327 -217l-78 58q45 121 149.5 185t255.5 64q178 0 279.5 -87t101.5 -252v-529q0 -109 95 -108q50 0 79 14l-6 -82q-37 -20 -100 -20q-72 0 -117 38.5t-51 135.5q-47 -82 -151.5 -128t-219.5 -46 q-152 0 -243 67.5t-91 192.5zM211 240q0 -82 63.5 -126t176.5 -44q86 0 167.5 29.5t136 88t54.5 140.5v190l-281 -51q-166 -31 -241.5 -86t-75.5 -141zM314 1518h110l166 -324h-86z" />
<glyph unicode="&#xe1;" horiz-adv-x="1112" d="M106 240q0 238 390 307l313 55v90q0 123 -72.5 192.5t-206.5 69.5q-244 0 -327 -217l-78 58q45 121 149.5 185t255.5 64q178 0 279.5 -87t101.5 -252v-529q0 -109 95 -108q50 0 79 14l-6 -82q-37 -20 -100 -20q-72 0 -117 38.5t-51 135.5q-47 -82 -151.5 -128t-219.5 -46 q-152 0 -243 67.5t-91 192.5zM211 240q0 -82 63.5 -126t176.5 -44q86 0 167.5 29.5t136 88t54.5 140.5v190l-281 -51q-166 -31 -241.5 -86t-75.5 -141zM473 1194l164 324h112l-192 -324h-84z" />
<glyph unicode="&#xe2;" horiz-adv-x="1112" d="M106 240q0 238 390 307l313 55v90q0 123 -72.5 192.5t-206.5 69.5q-244 0 -327 -217l-78 58q45 121 149.5 185t255.5 64q178 0 279.5 -87t101.5 -252v-529q0 -109 95 -108q50 0 79 14l-6 -82q-37 -20 -100 -20q-72 0 -117 38.5t-51 135.5q-47 -82 -151.5 -128t-219.5 -46 q-152 0 -243 67.5t-91 192.5zM211 240q0 -82 63.5 -126t176.5 -44q86 0 167.5 29.5t136 88t54.5 140.5v190l-281 -51q-166 -31 -241.5 -86t-75.5 -141zM248 1186l225 319h117l227 -319h-96l-188 246l-189 -246h-96z" />
<glyph unicode="&#xe3;" horiz-adv-x="1112" d="M106 240q0 238 390 307l313 55v90q0 123 -72.5 192.5t-206.5 69.5q-244 0 -327 -217l-78 58q45 121 149.5 185t255.5 64q178 0 279.5 -87t101.5 -252v-529q0 -109 95 -108q50 0 79 14l-6 -82q-37 -20 -100 -20q-72 0 -117 38.5t-51 135.5q-47 -82 -151.5 -128t-219.5 -46 q-152 0 -243 67.5t-91 192.5zM184 1208q14 115 62 170.5t143 55.5q55 0 91 -19.5t79 -58.5q33 -31 58.5 -46.5t57.5 -15.5q55 0 82 34t41 108h82q-14 -115 -63 -170.5t-140 -55.5q-57 0 -93 19.5t-79 58.5q-33 31 -58.5 46.5t-59.5 15.5q-55 0 -81 -34t-40 -108h-82z M211 240q0 -82 63.5 -126t176.5 -44q86 0 167.5 29.5t136 88t54.5 140.5v190l-281 -51q-166 -31 -241.5 -86t-75.5 -141z" />
<glyph unicode="&#xe4;" horiz-adv-x="1112" d="M106 240q0 238 390 307l313 55v90q0 123 -72.5 192.5t-206.5 69.5q-244 0 -327 -217l-78 58q45 121 149.5 185t255.5 64q178 0 279.5 -87t101.5 -252v-529q0 -109 95 -108q50 0 79 14l-6 -82q-37 -20 -100 -20q-72 0 -117 38.5t-51 135.5q-47 -82 -151.5 -128t-219.5 -46 q-152 0 -243 67.5t-91 192.5zM211 240q0 -82 63.5 -126t176.5 -44q86 0 167.5 29.5t136 88t54.5 140.5v190l-281 -51q-166 -31 -241.5 -86t-75.5 -141zM254 1290q0 37 23.5 60.5t60.5 23.5t59.5 -23.5t22.5 -60.5t-22.5 -59.5t-59.5 -22.5t-60.5 22.5t-23.5 59.5zM641 1290 q0 37 23.5 60.5t60.5 23.5t60.5 -23.5t23.5 -60.5t-23.5 -59.5t-60.5 -22.5t-60.5 22.5t-23.5 59.5z" />
<glyph unicode="&#xe5;" horiz-adv-x="1112" d="M106 240q0 238 390 307l313 55v90q0 123 -72.5 192.5t-206.5 69.5q-244 0 -327 -217l-78 58q45 121 149.5 185t255.5 64q178 0 279.5 -87t101.5 -252v-529q0 -109 95 -108q50 0 79 14l-6 -82q-37 -20 -100 -20q-72 0 -117 38.5t-51 135.5q-47 -82 -151.5 -128t-219.5 -46 q-152 0 -243 67.5t-91 192.5zM211 240q0 -82 63.5 -126t176.5 -44q86 0 167.5 29.5t136 88t54.5 140.5v190l-281 -51q-166 -31 -241.5 -86t-75.5 -141zM311 1384q0 90 60.5 147.5t154.5 57.5t154.5 -57t60.5 -148q0 -90 -60.5 -148t-154.5 -58t-154.5 58t-60.5 148z M387 1384q0 -59 40 -99t99 -40q61 0 101 40t40 99t-40 98.5t-101 39.5q-59 0 -99 -39t-40 -99z" />
<glyph unicode="&#xe6;" horiz-adv-x="1794" d="M106 240q0 121 94.5 199.5t284.5 101.5l332 37v112q0 125 -74.5 194.5t-212.5 69.5q-240 0 -327 -217l-78 58q45 123 150.5 186t256.5 63q137 0 228.5 -60t126.5 -177q53 113 147 175t221 62q209 0 318.5 -131t109.5 -360q0 -31 -4 -68h-770q6 -193 102.5 -304 t252.5 -111q125 0 200.5 47t114.5 141l84 -45q-57 -115 -151.5 -174t-247.5 -59q-147 0 -251 72.5t-151 213.5q-33 -143 -152.5 -214.5t-275.5 -71.5q-150 0 -239 68.5t-89 191.5zM211 240q0 -84 65.5 -127t176.5 -43q88 0 172 34.5t138 108.5t54 182v103l-299 -39 q-162 -18 -234.5 -73.5t-72.5 -145.5zM911 578h676q-23 377 -332 376q-145 0 -237 -99t-107 -277z" />
<glyph unicode="&#xe7;" horiz-adv-x="1116" d="M117 512q0 250 128 391t355 141q154 0 261.5 -72.5t154.5 -203.5l-96 -45q-35 113 -117 172t-205 59q-178 0 -278.5 -117.5t-100.5 -324.5q0 -209 99.5 -325.5t277.5 -116.5q131 0 222 64.5t112 178.5l94 -32q-37 -127 -134 -206t-237 -93q133 -86 133 -213 q0 -84 -57 -140.5t-154 -56.5q-70 0 -119.5 18.5t-90.5 59.5l41 71q59 -72 157 -71q57 0 95 35.5t38 95.5q0 59 -36.5 105t-135.5 98q-193 23 -300 162t-107 366z" />
<glyph unicode="&#xe8;" horiz-adv-x="1144" d="M117 512q0 250 124 391t347 141q209 0 327.5 -139t118.5 -368q0 -35 -4 -68h-813q10 -188 111.5 -293.5t271.5 -105.5q121 0 208 49t126 139l86 -45q-57 -113 -163.5 -173t-256.5 -60q-227 0 -355 141t-128 391zM217 561h721q-10 184 -101.5 288.5t-248.5 104.5 q-166 0 -262.5 -103t-108.5 -290zM363 1518h110l166 -324h-86z" />
<glyph unicode="&#xe9;" horiz-adv-x="1144" d="M117 512q0 250 124 391t347 141q209 0 327.5 -139t118.5 -368q0 -35 -4 -68h-813q10 -188 111.5 -293.5t271.5 -105.5q121 0 208 49t126 139l86 -45q-57 -113 -163.5 -173t-256.5 -60q-227 0 -355 141t-128 391zM217 561h721q-10 184 -101.5 288.5t-248.5 104.5 q-166 0 -262.5 -103t-108.5 -290zM522 1194l164 324h112l-192 -324h-84z" />
<glyph unicode="&#xea;" horiz-adv-x="1144" d="M117 512q0 250 124 391t347 141q209 0 327.5 -139t118.5 -368q0 -35 -4 -68h-813q10 -188 111.5 -293.5t271.5 -105.5q121 0 208 49t126 139l86 -45q-57 -113 -163.5 -173t-256.5 -60q-227 0 -355 141t-128 391zM217 561h721q-10 184 -101.5 288.5t-248.5 104.5 q-166 0 -262.5 -103t-108.5 -290zM297 1186l225 319h117l227 -319h-96l-188 246l-189 -246h-96z" />
<glyph unicode="&#xeb;" horiz-adv-x="1144" d="M117 512q0 250 124 391t347 141q209 0 327.5 -139t118.5 -368q0 -35 -4 -68h-813q10 -188 111.5 -293.5t271.5 -105.5q121 0 208 49t126 139l86 -45q-57 -113 -163.5 -173t-256.5 -60q-227 0 -355 141t-128 391zM217 561h721q-10 184 -101.5 288.5t-248.5 104.5 q-166 0 -262.5 -103t-108.5 -290zM303 1290q0 37 23.5 60.5t60.5 23.5t59.5 -23.5t22.5 -60.5t-22.5 -59.5t-59.5 -22.5t-60.5 22.5t-23.5 59.5zM690 1290q0 37 23.5 60.5t60.5 23.5t60.5 -23.5t23.5 -60.5t-23.5 -59.5t-60.5 -22.5t-60.5 22.5t-23.5 59.5z" />
<glyph unicode="&#xec;" horiz-adv-x="468" d="M15 1518h110l166 -324h-86zM182 0v1024h103v-1024h-103z" />
<glyph unicode="&#xed;" horiz-adv-x="468" d="M174 1194l164 324h112l-192 -324h-84zM182 0v1024h103v-1024h-103z" />
<glyph unicode="&#xee;" horiz-adv-x="468" d="M-49 1186l225 319h117l227 -319h-96l-188 246l-189 -246h-96zM182 0v1024h103v-1024h-103z" />
<glyph unicode="&#xef;" horiz-adv-x="468" d="M16 1290q0 37 22.5 60.5t59.5 23.5q39 0 61.5 -23.5t22.5 -60.5t-22.5 -59.5t-61.5 -22.5q-37 0 -59.5 22.5t-22.5 59.5zM182 0v1024h103v-1024h-103zM285 1290q0 37 23.5 60.5t60.5 23.5t60.5 -23.5t23.5 -60.5t-23.5 -59.5t-60.5 -22.5t-60.5 22.5t-23.5 59.5z" />
<glyph unicode="&#xf0;" horiz-adv-x="1228" d="M117 487q0 154 60.5 268.5t168 176t244.5 61.5q141 0 240.5 -54t152.5 -155q-39 272 -180 447l-369 -86l-14 65l338 72q-115 125 -305 213h149q152 -82 248 -190l233 57l19 -66l-209 -45q193 -254 192 -665q0 -289 -124.5 -447.5t-360.5 -158.5q-223 0 -353 136t-130 371 zM221 487q0 -195 102.5 -306t280.5 -111q176 0 277.5 119.5t105.5 316.5q0 174 -102.5 285.5t-282.5 111.5q-176 0 -278.5 -111.5t-102.5 -304.5z" />
<glyph unicode="&#xf1;" horiz-adv-x="1224" d="M182 0v1024h92l5 -207q49 111 150 169t233 58q176 0 283.5 -98t107.5 -282v-664h-103v631q0 164 -79.5 243.5t-219.5 79.5q-98 0 -182 -45t-134 -131t-50 -200v-578h-103zM279 1208q14 115 62 170.5t143 55.5q55 0 91 -19.5t79 -58.5q33 -31 58.5 -46.5t57.5 -15.5 q55 0 82 34t41 108h82q-14 -115 -63 -170.5t-140 -55.5q-57 0 -93 19.5t-79 58.5q-33 31 -58.5 46.5t-59.5 15.5q-55 0 -81 -34t-40 -108h-82z" />
<glyph unicode="&#xf2;" horiz-adv-x="1208" d="M117 512q0 248 130 390t357 142t357.5 -142t130.5 -390t-130.5 -390t-357.5 -142t-357 142t-130 390zM219 512q0 -207 102.5 -325.5t282.5 -118.5t282.5 118.5t102.5 325.5t-102.5 325.5t-282.5 118.5t-282.5 -118.5t-102.5 -325.5zM385 1518h110l166 -324h-86z" />
<glyph unicode="&#xf3;" horiz-adv-x="1208" d="M117 512q0 248 130 390t357 142t357.5 -142t130.5 -390t-130.5 -390t-357.5 -142t-357 142t-130 390zM219 512q0 -207 102.5 -325.5t282.5 -118.5t282.5 118.5t102.5 325.5t-102.5 325.5t-282.5 118.5t-282.5 -118.5t-102.5 -325.5zM545 1194l164 324h112l-192 -324h-84z " />
<glyph unicode="&#xf4;" horiz-adv-x="1208" d="M117 512q0 248 130 390t357 142t357.5 -142t130.5 -390t-130.5 -390t-357.5 -142t-357 142t-130 390zM219 512q0 -207 102.5 -325.5t282.5 -118.5t282.5 118.5t102.5 325.5t-102.5 325.5t-282.5 118.5t-282.5 -118.5t-102.5 -325.5zM320 1186l225 319h117l227 -319h-96 l-188 246l-189 -246h-96z" />
<glyph unicode="&#xf5;" horiz-adv-x="1208" d="M117 512q0 248 130 390t357 142t357.5 -142t130.5 -390t-130.5 -390t-357.5 -142t-357 142t-130 390zM219 512q0 -207 102.5 -325.5t282.5 -118.5t282.5 118.5t102.5 325.5t-102.5 325.5t-282.5 118.5t-282.5 -118.5t-102.5 -325.5zM256 1208q14 115 62 170.5t143 55.5 q55 0 91 -19.5t79 -58.5q33 -31 58.5 -46.5t57.5 -15.5q55 0 82 34t41 108h82q-14 -115 -63 -170.5t-140 -55.5q-57 0 -93 19.5t-79 58.5q-33 31 -58.5 46.5t-59.5 15.5q-55 0 -81 -34t-40 -108h-82z" />
<glyph unicode="&#xf6;" horiz-adv-x="1208" d="M117 512q0 248 130 390t357 142t357.5 -142t130.5 -390t-130.5 -390t-357.5 -142t-357 142t-130 390zM219 512q0 -207 102.5 -325.5t282.5 -118.5t282.5 118.5t102.5 325.5t-102.5 325.5t-282.5 118.5t-282.5 -118.5t-102.5 -325.5zM325 1290q0 37 23.5 60.5t60.5 23.5 t59.5 -23.5t22.5 -60.5t-22.5 -59.5t-59.5 -22.5t-60.5 22.5t-23.5 59.5zM712 1290q0 37 23.5 60.5t60.5 23.5t60.5 -23.5t23.5 -60.5t-23.5 -59.5t-60.5 -22.5t-60.5 22.5t-23.5 59.5z" />
<glyph unicode="&#xf7;" horiz-adv-x="1236" d="M137 600v94h963v-94h-963zM526 258q0 41 26 65.5t66 24.5q41 0 67 -24.5t26 -65.5t-26 -66.5t-67 -25.5t-66.5 25.5t-25.5 66.5zM526 1038q0 41 26 66.5t66 25.5q41 0 67 -25.5t26 -66.5t-26 -66.5t-67 -25.5t-66.5 25.5t-25.5 66.5z" />
<glyph unicode="&#xf8;" horiz-adv-x="1210" d="M117 512q0 248 130 390t357 142q178 0 303 -92l99 125h92l-135 -174q129 -141 129 -391q0 -248 -130.5 -390t-357.5 -142q-174 0 -289 83l-102 -133h-94l137 181q-139 143 -139 401zM219 512q0 -205 100 -322h3l61 86l467 598q-100 82 -246 82q-180 0 -282.5 -118.5 t-102.5 -325.5zM373 139q90 -72 231 -71q180 0 282.5 118.5t102.5 325.5q0 190 -90 309h-2l-53 -71z" />
<glyph unicode="&#xf9;" horiz-adv-x="1214" d="M172 348v676h102v-651q0 -303 283 -303q113 0 198 49t130 133t45 184v588h102v-1024h-92l-4 203q-51 -109 -153.5 -166t-241.5 -57q-168 0 -268.5 93t-100.5 275zM385 1518h110l166 -324h-86z" />
<glyph unicode="&#xfa;" horiz-adv-x="1214" d="M172 348v676h102v-651q0 -303 283 -303q113 0 198 49t130 133t45 184v588h102v-1024h-92l-4 203q-51 -109 -153.5 -166t-241.5 -57q-168 0 -268.5 93t-100.5 275zM545 1194l164 324h112l-192 -324h-84z" />
<glyph unicode="&#xfb;" horiz-adv-x="1214" d="M172 348v676h102v-651q0 -303 283 -303q113 0 198 49t130 133t45 184v588h102v-1024h-92l-4 203q-51 -109 -153.5 -166t-241.5 -57q-168 0 -268.5 93t-100.5 275zM320 1186l225 319h117l227 -319h-96l-188 246l-189 -246h-96z" />
<glyph unicode="&#xfc;" horiz-adv-x="1214" d="M172 348v676h102v-651q0 -303 283 -303q113 0 198 49t130 133t45 184v588h102v-1024h-92l-4 203q-51 -109 -153.5 -166t-241.5 -57q-168 0 -268.5 93t-100.5 275zM325 1290q0 37 23.5 60.5t60.5 23.5t59.5 -23.5t22.5 -60.5t-22.5 -59.5t-59.5 -22.5t-60.5 22.5 t-23.5 59.5zM712 1290q0 37 23.5 60.5t60.5 23.5t60.5 -23.5t23.5 -60.5t-23.5 -59.5t-60.5 -22.5t-60.5 22.5t-23.5 59.5z" />
<glyph unicode="&#xfd;" horiz-adv-x="1044" d="M12 -365l39 89q49 -74 156 -74q72 0 122 40t93 146l65 164l-106 254l-326 770h117l313 -776l52 -137l55 147l301 766h111l-494 -1212q-57 -139 -127 -195.5t-176 -56.5q-127 0 -195 75zM471 1194l164 324h112l-192 -324h-84z" />
<glyph unicode="&#xfe;" horiz-adv-x="1247" d="M182 -430v1925h103v-674q49 104 147 163.5t230 59.5q217 0 342.5 -141t125.5 -391t-125.5 -391t-342.5 -141q-131 0 -229.5 59t-147.5 164v-633h-103zM285 502q0 -201 99 -316.5t265 -115.5q178 0 278.5 117.5t100.5 324.5t-100.5 324.5t-278.5 117.5q-166 0 -265 -116.5 t-99 -315.5v-20z" />
<glyph unicode="&#xff;" horiz-adv-x="1044" d="M12 -365l39 89q49 -74 156 -74q72 0 122 40t93 146l65 164l-106 254l-326 770h117l313 -776l52 -137l55 147l301 766h111l-494 -1212q-57 -139 -127 -195.5t-176 -56.5q-127 0 -195 75zM254 1290q0 37 23.5 60.5t60.5 23.5t59.5 -23.5t22.5 -60.5t-22.5 -59.5 t-59.5 -22.5t-60.5 22.5t-23.5 59.5zM641 1290q0 37 23.5 60.5t60.5 23.5t60.5 -23.5t23.5 -60.5t-23.5 -59.5t-60.5 -22.5t-60.5 22.5t-23.5 59.5z" />
<glyph unicode="&#x152;" horiz-adv-x="2183" d="M127 676q0 213 73.5 369.5t210 241.5t322.5 85q166 0 286 -70.5t187 -205.5v256h858v-95h-764v-522h603v-96h-603v-545h797v-94h-891v258q-68 -137 -188.5 -207.5t-288.5 -70.5q-182 0 -318.5 85t-210 241.5t-73.5 369.5zM236 676q0 -184 60 -320.5t172 -209t265 -72.5 q232 0 352.5 154.5t120.5 447.5t-120.5 447.5t-352.5 154.5q-154 0 -265.5 -72.5t-171.5 -209t-60 -320.5z" />
<glyph unicode="&#x153;" horiz-adv-x="2023" d="M117 512q0 250 131 391t360 141q158 0 270.5 -72.5t165.5 -207.5q49 135 157 207.5t263 72.5q209 0 328 -139t119 -368q0 -35 -4 -68h-813q10 -188 111.5 -293.5t271.5 -105.5q121 0 208 49t125 139l86 -45q-57 -113 -163.5 -173t-255.5 -60q-158 0 -268.5 72.5 t-164.5 209.5q-53 -137 -164.5 -209.5t-271.5 -72.5q-229 0 -360 141t-131 391zM221 512q0 -207 103.5 -324.5t283.5 -117.5t281.5 117.5t101.5 324.5t-101.5 324.5t-281.5 117.5t-283.5 -117.5t-103.5 -324.5zM1096 561h719q-10 184 -101.5 288.5t-249.5 104.5 q-166 0 -262 -103t-106 -290z" />
<glyph unicode="&#x178;" horiz-adv-x="1114" d="M27 1352h120l410 -719l410 719h120l-479 -826v-526h-102v526zM278 1618q0 37 23.5 60.5t60.5 23.5t59.5 -23.5t22.5 -60.5t-22.5 -59.5t-59.5 -22.5t-60.5 22.5t-23.5 59.5zM665 1618q0 37 23.5 60.5t60.5 23.5t60.5 -23.5t23.5 -60.5t-23.5 -59.5t-60.5 -22.5 t-60.5 22.5t-23.5 59.5z" />
<glyph unicode="&#x2c6;" horiz-adv-x="1071" d="M252 1186l225 319h117l227 -319h-96l-188 246l-189 -246h-96z" />
<glyph unicode="&#x2dc;" horiz-adv-x="1071" d="M166 1208q14 115 62 170.5t143 55.5q55 0 91 -19.5t79 -58.5q33 -31 58.5 -46.5t57.5 -15.5q55 0 82 34t41 108h82q-14 -115 -63 -170.5t-140 -55.5q-57 0 -93 19.5t-79 58.5q-33 31 -58.5 46.5t-59.5 15.5q-55 0 -81 -34t-40 -108h-82z" />
<glyph unicode="&#x2000;" horiz-adv-x="916" />
<glyph unicode="&#x2001;" horiz-adv-x="1833" />
<glyph unicode="&#x2002;" horiz-adv-x="916" />
<glyph unicode="&#x2003;" horiz-adv-x="1833" />
<glyph unicode="&#x2004;" horiz-adv-x="611" />
<glyph unicode="&#x2005;" horiz-adv-x="458" />
<glyph unicode="&#x2006;" horiz-adv-x="305" />
<glyph unicode="&#x2007;" horiz-adv-x="305" />
<glyph unicode="&#x2008;" horiz-adv-x="229" />
<glyph unicode="&#x2009;" horiz-adv-x="366" />
<glyph unicode="&#x200a;" horiz-adv-x="101" />
<glyph unicode="&#x2010;" horiz-adv-x="954" d="M164 492v104h629v-104h-629z" />
<glyph unicode="&#x2011;" horiz-adv-x="954" d="M164 492v104h629v-104h-629z" />
<glyph unicode="&#x2012;" horiz-adv-x="954" d="M164 492v104h629v-104h-629z" />
<glyph unicode="&#x2013;" horiz-adv-x="1306" d="M154 496v96h999v-96h-999z" />
<glyph unicode="&#x2014;" horiz-adv-x="2004" d="M154 496v96h1695v-96h-1695z" />
<glyph unicode="&#x2018;" horiz-adv-x="444" d="M109 1143q0 88 44 162.5t132 117.5l57 -51q-72 -25 -118 -88t-42 -123l6 -2q12 18 48 19q31 0 55 -25t24 -66q0 -37 -26.5 -64.5t-65.5 -27.5q-53 0 -83.5 41t-30.5 107z" />
<glyph unicode="&#x2019;" horiz-adv-x="442" d="M111 1044q72 25 117.5 88.5t41.5 122.5l-6 2q-12 -18 -47 -18q-31 0 -55.5 23.5t-24.5 64.5q0 39 26.5 66.5t65.5 27.5q54 0 84.5 -41t30.5 -106q0 -88 -44 -163t-132 -118z" />
<glyph unicode="&#x201a;" horiz-adv-x="456" d="M104 -211q72 27 118 90.5t42 122.5l-6 2q-14 -20 -47 -20q-31 0 -55.5 24.5t-24.5 65.5q0 39 27.5 66.5t66.5 27.5q54 0 83.5 -41t29.5 -109q0 -86 -45 -161.5t-131 -118.5z" />
<glyph unicode="&#x201c;" horiz-adv-x="741" d="M109 1143q0 88 44 162.5t132 117.5l57 -51q-72 -25 -118 -88t-42 -123l6 -2q12 18 48 19q31 0 55 -25t24 -66q0 -37 -26.5 -64.5t-65.5 -27.5q-53 0 -83.5 41t-30.5 107zM408 1143q0 88 44 162.5t132 117.5l57 -51q-72 -25 -118 -88t-42 -123l6 -2q12 18 48 19 q31 0 55 -25t24 -66q0 -37 -26.5 -64.5t-65.5 -27.5q-53 0 -83.5 41t-30.5 107z" />
<glyph unicode="&#x201d;" horiz-adv-x="741" d="M111 1044q72 25 117.5 88.5t41.5 122.5l-6 2q-12 -18 -47 -18q-31 0 -55.5 23.5t-24.5 64.5q0 39 26.5 66.5t65.5 27.5q54 0 84.5 -41t30.5 -106q0 -88 -44 -163t-132 -118zM410 1044q72 25 117.5 88.5t41.5 122.5l-6 2q-12 -18 -47 -18q-31 0 -55.5 23.5t-24.5 64.5 q0 39 26.5 66.5t65.5 27.5q54 0 84.5 -41t30.5 -106q0 -88 -44 -163t-132 -118z" />
<glyph unicode="&#x201e;" horiz-adv-x="755" d="M104 -211q72 27 118 90.5t42 122.5l-6 2q-14 -20 -47 -20q-31 0 -55.5 24.5t-24.5 65.5q0 39 27.5 66.5t66.5 27.5q54 0 83.5 -41t29.5 -109q0 -86 -45 -161.5t-131 -118.5zM403 -211q72 27 118 90.5t42 122.5l-6 2q-14 -20 -47 -20q-31 0 -55.5 24.5t-24.5 65.5 q0 39 27.5 66.5t66.5 27.5q54 0 83.5 -41t29.5 -109q0 -86 -45 -161.5t-131 -118.5z" />
<glyph unicode="&#x2022;" horiz-adv-x="880" d="M246 692q0 82 55 135.5t139 53.5t139.5 -53.5t55.5 -135.5t-55.5 -135t-139.5 -53t-139 53t-55 135z" />
<glyph unicode="&#x2026;" horiz-adv-x="1445" d="M147 76q0 41 25.5 66.5t66.5 25.5t66.5 -25.5t25.5 -66.5t-25.5 -66.5t-66.5 -25.5t-66.5 25.5t-25.5 66.5zM631 76q0 41 25.5 66.5t66.5 25.5t66.5 -25.5t25.5 -66.5t-25.5 -66.5t-66.5 -25.5t-66.5 25.5t-25.5 66.5zM1116 76q0 41 25.5 66.5t66.5 25.5t66.5 -25.5 t25.5 -66.5t-25.5 -66.5t-66.5 -25.5t-66.5 25.5t-25.5 66.5z" />
<glyph unicode="&#x202f;" horiz-adv-x="366" />
<glyph unicode="&#x2039;" horiz-adv-x="593" d="M100 543l275 401h114l-278 -401l278 -402h-114z" />
<glyph unicode="&#x203a;" horiz-adv-x="593" d="M104 141l279 402l-279 401h115l277 -401l-277 -402h-115z" />
<glyph unicode="&#x205f;" horiz-adv-x="458" />
<glyph unicode="&#x20ac;" horiz-adv-x="1384" d="M100 471v86h172q-6 55 -6 119q0 37 4 102h-170v86h181q41 242 179 375t353 133q168 0 287 -77.5t170 -225.5l-90 -47q-39 127 -133.5 193.5t-225.5 66.5q-170 0 -284.5 -109.5t-151.5 -308.5h541l-31 -86h-522q-4 -66 -4 -102q0 -63 6 -119h469l-31 -86h-426 q41 -193 152.5 -297t279.5 -104q131 0 235.5 80.5t143.5 232.5l92 -37q-49 -174 -179 -270t-294 -96q-215 0 -353 129t-181 362h-183z" />
<glyph unicode="&#x2122;" horiz-adv-x="1636" d="M88 1280v72h555v-72h-229v-604h-92v604h-234zM770 676v676h113l200 -488l33 -84h2l29 84l205 488h108v-676h-90v430l10 127h-2l-16 -51l-211 -506h-70l-211 506l-18 51h-2l10 -127v-430h-90z" />
<glyph unicode="&#x25fc;" horiz-adv-x="1024" d="M0 0v1024h1024v-1024h-1024z" />
</font>
</defs>
</svg>
