<?xml version="1.0" standalone="no"?>
<!DOCTYPE svg PUBLIC "-//W3C//DTD SVG 1.1//EN" "http://www.w3.org/Graphics/SVG/1.1/DTD/svg11.dtd" >
<svg xmlns="http://www.w3.org/2000/svg" xmlns:xlink="http://www.w3.org/1999/xlink" version="1.1">
<metadata></metadata>
<defs>
<font id="work_sansextralight" horiz-adv-x="1214" >
<font-face units-per-em="2048" ascent="1638" descent="-410" />
<missing-glyph horiz-adv-x="598" />
<glyph unicode="&#xfb01;" horiz-adv-x="1095" d="M33 975v49h205v170q0 145 74.5 228t209.5 83q104 0 160 -59l-20 -45q-27 29 -59 41t-79 12q-109 0 -169 -68.5t-60 -193.5v-168h373v-49h-373v-975h-57v975h-205zM829 1284q0 27 17.5 43t44.5 16t43 -16t16 -43t-16.5 -43t-42.5 -16q-29 0 -45.5 16t-16.5 43zM862 0v1024 h58v-1024h-58z" />
<glyph unicode="&#xfb02;" horiz-adv-x="1196" d="M33 975v49h205v170q0 145 74.5 228t209.5 83q104 0 160 -59l-20 -45q-27 29 -59 41t-79 12q-109 0 -169 -68.5t-60 -193.5v-168h373v-49h-373v-975h-57v975h-205zM854 225v1270h57v-1266q0 -104 34 -150t108 -46q41 0 66.5 5t58.5 19l-7 -53q-49 -25 -125 -24 q-98 0 -145 59t-47 186z" />
<glyph horiz-adv-x="0" />
<glyph horiz-adv-x="682" />
<glyph unicode=" "  horiz-adv-x="598" />
<glyph unicode="&#x09;" horiz-adv-x="598" />
<glyph unicode="&#xa0;" horiz-adv-x="598" />
<glyph unicode="!" horiz-adv-x="407" d="M141 49q0 27 17.5 44.5t44.5 17.5q28 0 45.5 -17.5t17.5 -44.5t-17.5 -44t-45.5 -17q-27 0 -44.5 17.5t-17.5 43.5zM174 647v705h59v-705l-4 -285h-51z" />
<glyph unicode="&#x22;" horiz-adv-x="555" d="M141 1036v361h62l-10 -361h-52zM358 1036v361h62l-10 -361h-52z" />
<glyph unicode="#" horiz-adv-x="1298" d="M80 426v47h285l65 424h-285v47h291l64 408h53l-64 -408h392l63 408h53l-63 -408h285v-47h-291l-66 -424h289v-47h-297l-66 -426h-53l66 426h-391l-66 -426h-53l65 426h-276zM418 473h391l65 424h-391z" />
<glyph unicode="$" horiz-adv-x="1202" d="M113 350l53 29q31 -147 145.5 -233.5t280.5 -96.5v596q-147 31 -236.5 62.5t-150 99t-60.5 184.5q0 96 54.5 177t156 131.5t236.5 52.5v204h49v-204q166 -8 272.5 -81t155.5 -218l-47 -37q-41 139 -136 208.5t-245 78.5v-615q145 -29 233.5 -60.5t148.5 -99t60 -184.5 q0 -152 -119.5 -246t-322.5 -98v-205h-49v205q-184 8 -310 98t-169 252zM203 993q0 -96 52 -153.5t130 -86t207 -55.5v605q-178 -2 -283.5 -89.5t-105.5 -220.5zM641 49q170 4 278.5 81t108.5 212q0 94 -52 151.5t-130 86t-205 55.5v-586z" />
<glyph unicode="%" horiz-adv-x="1585" d="M80 1006q0 150 74.5 250t218.5 100q143 0 217 -100.5t74 -249.5q0 -147 -74 -245.5t-217 -98.5t-218 98t-75 246zM135 1006q0 -131 59.5 -214t178.5 -83t178 82.5t59 214.5q0 131 -60.5 217t-176.5 86q-117 0 -177.5 -86t-60.5 -217zM309 0l905 1352h60l-905 -1352h-60z M920 342q0 150 75.5 249t218.5 99q144 0 217.5 -99t73.5 -249t-73.5 -248t-217.5 -98q-143 0 -218.5 99.5t-75.5 246.5zM975 342q0 -129 60.5 -214t178.5 -85q117 0 176.5 84t59.5 215t-59.5 216t-176.5 85q-118 0 -178.5 -85t-60.5 -216z" />
<glyph unicode="&#x26;" horiz-adv-x="1191" d="M94 293q0 141 86 236.5t271 201.5q-104 137 -141.5 208t-37.5 148q0 125 80 202t213 77q127 0 205 -66.5t78 -183.5q0 -115 -68.5 -205t-253.5 -194q49 -68 144 -189q162 -207 223 -282q61 94 92 223t29 276l49 -4q2 -152 -31 -291t-106 -243q92 -107 152.5 -144.5 t125.5 -37.5l-10 -45q-72 0 -137.5 40.5t-159.5 145.5q-152 -186 -408 -186q-174 0 -284.5 85t-110.5 228zM150 295q0 -121 95 -193.5t238 -72.5q242 0 379 176q-63 76 -227 289l-154 196q-117 -66 -186.5 -120t-107 -120.5t-37.5 -154.5zM328 1090q0 -49 12 -88t47 -92.5 t109 -151.5q174 96 236.5 177t62.5 181q0 92 -62.5 146.5t-167.5 54.5q-108 0 -172.5 -62.5t-64.5 -164.5z" />
<glyph unicode="'" horiz-adv-x="337" d="M141 1036v361h62l-10 -361h-52z" />
<glyph unicode="(" horiz-adv-x="555" d="M113 582q0 311 94 540.5t291 397.5l30 -35q-186 -158 -273 -379t-87 -524t87 -523.5t273 -380.5l-30 -34q-197 168 -291 397t-94 541z" />
<glyph unicode=")" horiz-adv-x="555" d="M27 -322q188 160 274 380.5t86 523.5q0 305 -86 525t-274 378l30 35q197 -168 292 -397.5t95 -540.5q0 -309 -95 -539.5t-292 -398.5z" />
<glyph unicode="*" horiz-adv-x="1069" d="M96 1159l17 49l256 -82l147 -57l-8 156v270h53v-270l-8 -156l145 57l258 82l15 -49l-256 -84l-152 -41l99 -121l157 -219l-41 -30l-160 217l-83 131l-86 -131l-158 -217l-43 30l160 219l96 121l-152 41z" />
<glyph unicode="+" horiz-adv-x="1236" d="M139 621v53h453v450h55v-450h451v-53h-451v-463h-55v463h-453z" />
<glyph unicode="," horiz-adv-x="380" d="M100 -205q55 23 94 78t39 107q0 10 -4 30h-4q-12 -23 -39 -22q-25 0 -41 17.5t-16 43.5q0 25 18.5 43.5t45.5 18.5q40 0 61.5 -31t21.5 -82q0 -70 -36.5 -133.5t-102.5 -97.5z" />
<glyph unicode="-" horiz-adv-x="888" d="M147 520v60h594v-60h-594z" />
<glyph unicode="." horiz-adv-x="380" d="M129 49q0 29 17.5 45.5t43.5 16.5q29 0 45.5 -16.5t16.5 -45.5q0 -27 -16.5 -44t-45.5 -17q-27 0 -44 17.5t-17 43.5z" />
<glyph unicode="/" horiz-adv-x="749" d="M70 -143l551 1638h57l-551 -1638h-57z" />
<glyph unicode="0" horiz-adv-x="1220" d="M125 676q0 336 125 516t360 180q236 0 361 -180t125 -516t-125 -516t-361 -180q-235 0 -360 180t-125 516zM184 676q0 -313 109.5 -479t316.5 -166t317.5 165.5t110.5 479.5q0 313 -110.5 479t-317.5 166t-316.5 -166t-109.5 -479z" />
<glyph unicode="1" horiz-adv-x="681" d="M61 1061q113 39 219.5 116.5t155.5 174.5h56v-1352h-58v1049q0 141 2 213q-61 -88 -156.5 -153t-201.5 -97z" />
<glyph unicode="2" horiz-adv-x="1112" d="M98 954q12 190 130 304t313 114q197 0 310.5 -108.5t113.5 -294.5q0 -139 -84 -272.5t-236.5 -273.5t-437.5 -370v-2h84h727v-51h-899v49q305 248 457.5 386t241.5 270.5t89 263.5q0 162 -98 257t-268 95q-172 0 -276.5 -106.5t-114.5 -286.5z" />
<glyph unicode="3" horiz-adv-x="1091" d="M92 291l51 31q31 -135 131.5 -213t270.5 -78q158 0 260 89t102 236q0 137 -89 218t-251 81h-92v54h92q145 0 225 85t80 218q0 145 -88 227t-245 82q-129 0 -220.5 -68.5t-125.5 -187.5l-58 29q47 129 153.5 203.5t250.5 74.5q184 0 288.5 -95t104.5 -257 q0 -131 -70.5 -225.5t-189.5 -112.5v-2q129 -8 211 -100.5t82 -229.5q0 -109 -55.5 -193.5t-151.5 -130.5t-215 -46q-182 0 -298 82.5t-153 228.5z" />
<glyph unicode="4" horiz-adv-x="1148" d="M80 408v45l661 899h76v-895h277v-49h-277v-408h-57v408h-680zM143 457h617v700l2 141h-4q-39 -59 -96 -141z" />
<glyph unicode="5" horiz-adv-x="1114" d="M106 303l54 25q27 -150 132 -223.5t277 -73.5q111 0 198 47t135 133t48 195q-2 166 -103.5 268t-266.5 102q-256 0 -379 -166h-51l65 742h739v-52h-692l-53 -593l-2 -37h2q117 158 377 157q123 0 219 -53t149.5 -148.5t53.5 -217.5q0 -125 -55.5 -222.5t-155 -151.5 t-228.5 -54q-389 0 -463 323z" />
<glyph unicode="6" horiz-adv-x="1136" d="M119 676q0 225 65.5 381.5t181 235.5t265.5 79q276 0 368 -254l-53 -24q-31 104 -110.5 165.5t-206.5 61.5q-158 0 -260.5 -93t-149.5 -246t-47 -333q0 -74 16 -213h7q0 115 58 202t152.5 133t198.5 46q199 0 312.5 -114.5t113.5 -305.5q0 -190 -117.5 -303.5 t-316.5 -113.5q-236 0 -356.5 179t-120.5 517zM227 401q0 -104 46 -188t130 -132t191 -48q174 0 275.5 100t101.5 268q0 162 -100.5 263.5t-268.5 101.5q-108 0 -194 -52t-133.5 -136t-47.5 -177z" />
<glyph unicode="7" horiz-adv-x="1038" d="M51 1300v52h959v-52q-248 -266 -379 -585.5t-158 -714.5h-59q25 385 154.5 709.5t377.5 590.5h-895z" />
<glyph unicode="8" horiz-adv-x="1171" d="M117 350q0 137 91 234.5t243 126.5v2q-129 29 -202 113.5t-73 209.5q0 152 111.5 244t298.5 92q186 0 297.5 -92t111.5 -244q0 -123 -71.5 -208t-200.5 -115v-2q152 -31 242 -128.5t90 -232.5q0 -109 -59.5 -192.5t-166 -130.5t-243.5 -47t-243.5 47t-166 131t-59.5 192z M176 352q0 -94 51.5 -166.5t144.5 -113.5t214 -41t214 41t144 113.5t51 166.5q0 96 -51 171t-144 117t-214 42q-119 0 -212 -42t-145.5 -116.5t-52.5 -171.5zM233 1032q0 -133 96.5 -214t256.5 -81t256 81t96 214q0 131 -96.5 209t-255.5 78q-160 0 -256.5 -78t-96.5 -209z " />
<glyph unicode="9" horiz-adv-x="1181" d="M121 954q0 190 120.5 304t323.5 114q236 0 363 -182t127 -514q0 -340 -132 -518t-356 -178q-170 0 -285.5 78.5t-150.5 211.5l59 31q25 -125 120.5 -197.5t256.5 -72.5q227 0 330.5 188.5t103.5 472.5q0 113 -20 232h-4q0 -121 -60.5 -209t-157.5 -134t-202 -46 q-199 0 -317.5 113.5t-118.5 305.5zM180 950q0 -164 103.5 -263t277.5 -99q109 0 197 52t138 136t50 174q0 104 -48 188.5t-134 132.5t-197 48q-178 0 -282.5 -100.5t-104.5 -268.5z" />
<glyph unicode=":" horiz-adv-x="434" d="M156 49q0 29 17.5 45.5t43.5 16.5q29 0 45.5 -16.5t16.5 -45.5q0 -27 -16.5 -44t-45.5 -17q-27 0 -44 17.5t-17 43.5zM156 967q0 29 17.5 45.5t43.5 16.5q29 0 45.5 -16.5t16.5 -45.5q0 -27 -16.5 -44t-45.5 -17q-27 0 -44 17.5t-17 43.5z" />
<glyph unicode=";" horiz-adv-x="434" d="M125 -205q55 23 94 78t39 107q0 10 -4 30h-4q-12 -23 -39 -22q-25 0 -41 17.5t-16 43.5q0 25 18 43.5t45 18.5q41 0 62.5 -31t21.5 -82q0 -70 -36 -134.5t-103 -96.5zM162 967q0 29 17.5 45t43.5 16q29 0 45.5 -16.5t16.5 -44.5q0 -27 -16.5 -44.5t-45.5 -17.5 q-26 0 -43.5 17.5t-17.5 44.5z" />
<glyph unicode="&#x3c;" horiz-adv-x="1236" d="M178 580v67l920 473v-63l-873 -443l873 -444v-64z" />
<glyph unicode="=" horiz-adv-x="1236" d="M170 403v52h897v-52h-897zM170 819v53h897v-53h-897z" />
<glyph unicode="&#x3e;" horiz-adv-x="1236" d="M139 106v64l873 444l-873 443v63l920 -473v-67z" />
<glyph unicode="?" horiz-adv-x="995" d="M66 1026q59 346 442 346q178 0 288.5 -93t110.5 -253q0 -172 -98 -278.5t-303 -159.5v-258h-57v291q152 43 238.5 95t124.5 125.5t38 180.5q0 139 -94 219t-250 80q-346 0 -391 -322zM416 49q0 29 17.5 45.5t43.5 16.5q27 0 44.5 -17.5t17.5 -44.5t-17.5 -44t-44.5 -17 t-44 17.5t-17 43.5z" />
<glyph unicode="@" horiz-adv-x="1949" d="M115 475q0 268 107.5 471t305 312.5t459.5 109.5q291 0 478.5 -119t273.5 -312.5t86 -428.5q0 -248 -74 -387t-205 -139q-106 0 -154.5 70.5t-52.5 213.5q-43 -133 -143 -207.5t-244 -74.5q-129 0 -228 59t-153.5 169t-54.5 257q0 152 58.5 264.5t163 174t237.5 61.5 q145 0 242.5 -73t134.5 -202l8 242h43l-14 -660q-2 -119 39.5 -184t127.5 -65q102 0 160 126t58 355q0 225 -80 408.5t-256 295t-451 111.5q-248 0 -433 -103.5t-285.5 -296t-100.5 -448.5q0 -254 104.5 -439.5t293 -283.5t435.5 -98q137 0 265.5 42t208.5 116l30 -39 q-92 -76 -226 -121t-278 -45q-264 0 -464.5 104.5t-311 300t-110.5 463.5zM571 471q0 -201 105.5 -320.5t284.5 -119.5q111 0 196.5 53t133.5 148.5t50 213.5l2 70q2 115 -40.5 208t-125.5 146.5t-198 53.5q-186 0 -297 -123t-111 -330z" />
<glyph unicode="A" horiz-adv-x="1228" d="M31 0l551 1352h65l551 -1352h-59l-189 459h-671l-189 -459h-59zM299 512h629l-273 670l-41 110l-41 -108z" />
<glyph unicode="B" horiz-adv-x="1263" d="M207 0v1352h475q211 0 317.5 -88t106.5 -260q0 -127 -66.5 -210t-195.5 -110v-2q141 -20 220 -106.5t79 -223.5q0 -172 -118 -262t-343 -90h-475zM264 51h426q195 0 294 77t99 226q0 150 -99 225.5t-294 75.5h-426v-604zM264 709h418q180 0 272.5 73.5t92.5 218.5 q0 147 -92.5 223t-272.5 76h-418v-591z" />
<glyph unicode="C" horiz-adv-x="1343" d="M119 676q0 211 74.5 368.5t212 242.5t317.5 85q420 0 524 -348l-55 -27q-98 324 -467 324q-164 0 -287 -79t-191.5 -224.5t-68.5 -341.5q0 -197 68.5 -342.5t191.5 -224t287 -78.5q182 0 308 86t171 243l58 -20q-54 -172 -195 -266t-342 -94q-180 0 -317.5 85t-213 242.5 t-75.5 368.5z" />
<glyph unicode="D" horiz-adv-x="1415" d="M207 0v1352h420q325 0 496 -168t171 -492q0 -340 -171 -516t-496 -176h-420zM264 51h365q297 0 451.5 164t154.5 477q0 297 -154.5 452.5t-451.5 155.5h-365v-1249z" />
<glyph unicode="E" d="M207 0v1352h905v-52h-848v-585h676v-51h-676v-613h881v-51h-938z" />
<glyph unicode="F" horiz-adv-x="1157" d="M207 0v1352h903v-52h-846v-585h676v-51h-676v-664h-57z" />
<glyph unicode="G" horiz-adv-x="1402" d="M119 676q0 211 75.5 368.5t213 242.5t317.5 85q211 0 341 -86t187 -262l-51 -27q-102 324 -477 324q-164 0 -287 -79t-191.5 -224.5t-68.5 -341.5q0 -197 65.5 -342.5t188.5 -224t287 -78.5q174 0 283.5 72.5t157.5 179t48 213.5v98h-481v51h537v-645h-52v287 q-49 -145 -175 -226t-320 -81q-180 0 -315.5 85t-209 242.5t-73.5 368.5z" />
<glyph unicode="H" horiz-adv-x="1439" d="M207 0v1352h57v-637h912v637h57v-1352h-57v664h-912v-664h-57z" />
<glyph unicode="I" horiz-adv-x="468" d="M207 0v1352h57v-1352h-57z" />
<glyph unicode="J" horiz-adv-x="1046" d="M66 328q0 43 6 88l55 20q-6 -49 -6 -90q0 -154 83 -234.5t240 -80.5q176 0 264.5 108.5t88.5 302.5v910h57v-918q0 -213 -105.5 -333.5t-304.5 -120.5q-180 0 -279 93t-99 255z" />
<glyph unicode="K" horiz-adv-x="1179" d="M207 0v1352h57v-801l787 801h77l-530 -543l549 -809h-72l-520 766l-291 -295v-471h-57z" />
<glyph unicode="L" horiz-adv-x="1132" d="M207 0v1352h57v-1301h838v-51h-895z" />
<glyph unicode="M" horiz-adv-x="1636" d="M207 0v1352h82l489 -1172l39 -112h2l39 110l490 1174h82v-1352h-56v1124l4 162l-530 -1286h-60l-530 1286h-2l6 -162v-1124h-55z" />
<glyph unicode="N" horiz-adv-x="1437" d="M207 0v1352h74l827 -1176l70 -115l-2 136v1155h55v-1352h-76l-825 1176l-70 116h-2l4 -137v-1155h-55z" />
<glyph unicode="O" horiz-adv-x="1474" d="M119 676q0 213 75.5 369.5t215 241.5t327.5 85q189 0 329 -85t215 -241.5t75 -369.5t-75 -369.5t-215 -241.5t-329 -85q-188 0 -327.5 85t-215 241.5t-75.5 369.5zM178 676q0 -197 67.5 -342.5t194.5 -224t297 -78.5t297 78.5t194.5 224t67.5 342.5t-67.5 342t-194.5 224 t-297 79t-297 -79t-194.5 -224.5t-67.5 -341.5z" />
<glyph unicode="P" horiz-adv-x="1167" d="M207 0v1352h428q215 0 338 -102.5t123 -282.5t-123 -281.5t-338 -101.5h-371v-584h-57zM264 635h367q192 0 298.5 87t106.5 245t-106.5 245.5t-298.5 87.5h-367v-665z" />
<glyph unicode="Q" horiz-adv-x="1474" d="M119 676q0 213 75.5 369.5t215 241.5t327.5 85t328.5 -85t215.5 -241.5t75 -369.5q0 -205 -71 -359.5t-202 -241.5t-309 -95q10 -162 97 -243t227 -81q145 0 219 76l22 -51q-41 -39 -103 -59.5t-138 -20.5q-160 0 -262.5 98t-112.5 281q-184 4 -320.5 90t-210 241.5 t-73.5 364.5zM178 676q0 -197 67.5 -342.5t194.5 -224t297 -78.5t297 78.5t194.5 224t67.5 342.5t-67.5 342t-194.5 224t-297 79t-297 -79t-194.5 -224.5t-67.5 -341.5z" />
<glyph unicode="R" horiz-adv-x="1271" d="M207 0v1352h493q201 0 317 -99.5t116 -273.5q0 -154 -89.5 -250t-248.5 -119l401 -610h-66l-401 604h-29h-436v-604h-57zM264 657h436q179 0 277 84t98 238q0 152 -98 236.5t-277 84.5h-436v-643z" />
<glyph unicode="S" horiz-adv-x="1234" d="M88 328l51 34q31 -162 166 -246.5t336 -84.5q190 0 313 81t123 222q0 121 -98 191.5t-336 109.5q-195 33 -306.5 80t-159.5 115.5t-48 170.5q0 100 58.5 184.5t169 135.5t257.5 51q398 0 498 -309l-47 -37q-45 152 -157.5 223.5t-293.5 71.5q-129 0 -226 -42 t-149.5 -113.5t-52.5 -161.5q0 -84 43 -141.5t145.5 -98.5t282.5 -72q176 -31 279.5 -77t151 -113.5t47.5 -167.5q0 -102 -62.5 -183t-175.5 -126t-258 -45q-217 0 -363.5 89t-187.5 259z" />
<glyph unicode="T" horiz-adv-x="1136" d="M31 1300v52h1075v-52h-508v-1300h-57v1300h-510z" />
<glyph unicode="U" horiz-adv-x="1409" d="M190 485v867h58v-858q0 -223 118.5 -343t338.5 -120q217 0 336.5 120.5t119.5 342.5v858h58v-867q0 -244 -135.5 -374.5t-378.5 -130.5q-244 0 -379.5 131t-135.5 374z" />
<glyph unicode="V" horiz-adv-x="1208" d="M39 1352h61l443 -1129l61 -166l62 166l442 1129h59l-528 -1352h-72z" />
<glyph unicode="W" horiz-adv-x="1882" d="M51 1352h62l413 -1301l381 1301h70l379 -1303l413 1303h60l-436 -1352h-74l-295 999l-82 285h-2l-80 -285l-297 -999h-74z" />
<glyph unicode="X" horiz-adv-x="1105" d="M29 0l489 698l-446 654h69l414 -607l424 607h70l-459 -656l475 -696h-68l-444 647l-453 -647h-71z" />
<glyph unicode="Y" horiz-adv-x="1071" d="M31 1352h67l264 -463l175 -303l436 766h67l-475 -828v-524h-57v524z" />
<glyph unicode="Z" horiz-adv-x="1161" d="M70 0v51l925 1249h-909v52h975v-52l-924 -1249h963v-51h-1030z" />
<glyph unicode="[" horiz-adv-x="579" d="M160 -344v1839h389v-49h-336v-1741h336v-49h-389z" />
<glyph unicode="\" horiz-adv-x="749" d="M72 1495h57l551 -1638h-57z" />
<glyph unicode="]" horiz-adv-x="579" d="M31 -295h336v1741h-336v49h389v-1839h-389v49z" />
<glyph unicode="^" horiz-adv-x="1101" d="M72 727l448 768h62l448 -768h-63l-416 715l-416 -715h-63z" />
<glyph unicode="_" horiz-adv-x="1038" d="M0 -199h1038v-51h-1038v51z" />
<glyph unicode="`" horiz-adv-x="1107" d="M303 1503h64l170 -309h-50z" />
<glyph unicode="a" horiz-adv-x="1077" d="M98 227q0 121 91.5 193t289.5 108l346 64v115q0 137 -79.5 212.5t-229.5 75.5q-135 0 -222 -56t-130 -177l-45 33q92 249 395 249h2q176 0 271.5 -85t95.5 -248v-549q0 -66 27.5 -99.5t78.5 -33.5q53 0 78 16l-4 -47q-31 -18 -82 -18q-156 0 -156 196v2 q-43 -94 -157.5 -146t-243.5 -52q-152 0 -239 65.5t-87 181.5zM158 227q0 -94 72.5 -145t203.5 -51q86 0 177 31.5t152.5 96t61.5 156.5v228l-319 -60q-184 -33 -266 -95t-82 -161z" />
<glyph unicode="b" d="M178 0v1495h58v-741q41 137 146 213.5t255 76.5q219 0 344 -141t125 -391t-125 -391t-344 -141q-152 0 -257.5 78.5t-146.5 217.5l-2 -276h-53zM236 504q0 -219 106.5 -346t286.5 -127q198 0 309 127t111 354t-111 355t-309 128q-180 0 -286.5 -128t-106.5 -347v-16z" />
<glyph unicode="c" horiz-adv-x="1089" d="M109 512q0 250 125.5 391t349.5 141q153 0 260.5 -72.5t146.5 -205.5l-51 -27q-33 123 -126 189.5t-230 66.5q-197 0 -307.5 -129t-110.5 -354q0 -227 108.5 -354t305.5 -127q141 0 244.5 72.5t123.5 195.5l51 -18q-31 -137 -146.5 -219t-272.5 -82q-223 0 -347 141 t-124 391z" />
<glyph unicode="d" d="M109 512q0 250 124.5 391t344.5 141q150 0 256 -76.5t147 -215.5v743h57v-1495h-53l-2 274q-41 -139 -147.5 -216.5t-257.5 -77.5q-219 0 -344 141t-125 391zM166 512q0 -227 110.5 -354t309.5 -127q176 0 283.5 122.5t111.5 335.5v46q-4 213 -111.5 336.5t-283.5 123.5 q-199 0 -309.5 -128t-110.5 -355z" />
<glyph unicode="e" horiz-adv-x="1112" d="M109 512q0 250 122.5 391t339.5 141q207 0 323 -142t116 -386l-2 -35h-842q8 -213 117.5 -331.5t300.5 -118.5q125 0 223 56t145 157l47 -25q-55 -113 -163.5 -176t-251.5 -63q-223 0 -349 141t-126 391zM166 535h790q-6 217 -105 338.5t-280 121.5q-186 0 -293.5 -121.5 t-111.5 -338.5z" />
<glyph unicode="f" horiz-adv-x="684" d="M33 975v49h205v170q0 145 74.5 228t209.5 83q104 0 160 -59l-20 -45q-27 29 -59 41t-79 12q-109 0 -169 -68.5t-60 -193.5v-168h373v-49h-373v-975h-57v975h-205z" />
<glyph unicode="g" horiz-adv-x="1030" d="M70 -166q0 82 57 141.5t156 79.5q-70 23 -112 70t-42 106q0 76 55.5 128.5t143.5 68.5q-96 39 -149.5 113.5t-53.5 177.5q0 147 111.5 236t295.5 89q145 0 244 -55q8 102 71.5 162.5t166.5 60.5l16 -49q-96 0 -152.5 -52t-62.5 -146q125 -90 125 -246q0 -150 -111.5 -238 t-296.5 -88q-66 0 -124 13q-100 -8 -162 -54.5t-62 -111.5q0 -68 62.5 -111t179.5 -43h256q154 0 245 -62.5t91 -166.5q0 -86 -60.5 -154t-168 -105.5t-246.5 -37.5q-221 0 -347 75.5t-126 198.5zM125 -158q0 -106 113.5 -169.5t312.5 -63.5q119 0 213 30.5t147.5 86 t53.5 124.5q0 86 -78 136.5t-215 50.5h-262q-127 0 -206 -54.5t-79 -140.5zM182 719q0 -127 95.5 -203t254.5 -76q160 0 255.5 76t95.5 203t-95.5 201.5t-255.5 74.5t-255 -74.5t-95 -201.5z" />
<glyph unicode="h" horiz-adv-x="1191" d="M178 0v1495h58v-715q41 123 150.5 195t256.5 72q178 0 281.5 -98.5t103.5 -276.5v-670h-57v655q0 162 -90 250t-246 88q-111 0 -202 -51t-144 -140t-53 -200v-604h-58z" />
<glyph unicode="i" horiz-adv-x="411" d="M145 1284q0 27 17.5 43t44.5 16t43 -16t16 -43t-16.5 -43t-42.5 -16q-29 0 -45.5 16t-16.5 43zM178 0v1024h58v-1024h-58z" />
<glyph unicode="j" horiz-adv-x="411" d="M-201 -391l17 53q25 -25 61.5 -37t79.5 -12q100 0 160.5 70.5t60.5 193.5v1147h58v-1151q0 -147 -78 -230t-201 -83q-98 0 -158 49zM145 1284q0 27 17.5 43t44.5 16q24 0 41.5 -16t17.5 -43t-17.5 -43t-41.5 -16q-27 0 -44.5 16t-17.5 43z" />
<glyph unicode="k" horiz-adv-x="1019" d="M178 0v1495h58v-1096l663 625h80l-442 -416l454 -608h-71l-426 569l-258 -245v-324h-58z" />
<glyph unicode="l" horiz-adv-x="512" d="M170 225v1270h57v-1266q0 -104 34 -150t108 -46q41 0 66.5 5t58.5 19l-7 -53q-47 -24 -119 -24h-6q-98 0 -145 59t-47 186z" />
<glyph unicode="m" horiz-adv-x="1976" d="M178 0v1024h53l2 -244q43 121 154 192.5t254 71.5q147 0 246.5 -71.5t126.5 -204.5q37 125 151.5 203t264.5 78q174 0 278 -98.5t104 -276.5v-670h-57v664q0 158 -90 243.5t-244 85.5q-111 0 -202 -52t-143 -141t-52 -194v-610h-57v664q0 158 -90.5 244.5t-243.5 86.5 q-109 0 -200 -52t-144 -141t-53 -198v-604h-58z" />
<glyph unicode="n" horiz-adv-x="1191" d="M178 0v1024h53v-246q43 123 154 194.5t258 71.5q178 0 281.5 -98t103.5 -276v-670h-57v655q0 164 -90 252t-246 88q-111 0 -202 -52t-144 -141t-53 -200v-602h-58z" />
<glyph unicode="o" horiz-adv-x="1179" d="M109 512q0 248 129 390t354 142q223 0 351 -141t128 -391t-128 -391t-351 -141q-225 0 -354 142t-129 390zM166 512q0 -225 113.5 -354t312.5 -129q197 0 309.5 129t112.5 354t-113 354t-309 129q-199 0 -312.5 -129t-113.5 -354z" />
<glyph unicode="p" d="M178 -430v1454h53l2 -276q41 139 146.5 217.5t257.5 78.5q219 0 344 -141t125 -391t-125 -391t-344 -141q-150 0 -255.5 76.5t-145.5 213.5v-700h-58zM236 504q0 -219 106.5 -346t286.5 -127q198 0 309 127t111 354t-111 355t-309 128q-180 0 -286.5 -128t-106.5 -347 v-16z" />
<glyph unicode="q" horiz-adv-x="1216" d="M111 512q0 250 124.5 391t344.5 141q152 0 258 -77.5t147 -216.5l2 274h53v-1454h-57v702q-41 -139 -147.5 -215.5t-255.5 -76.5q-219 0 -344 141t-125 391zM168 512q0 -227 110.5 -354t309.5 -127q178 0 284.5 122.5t110.5 335.5v46q-4 213 -111.5 336.5t-283.5 123.5 q-199 0 -309.5 -128t-110.5 -355z" />
<glyph unicode="r" horiz-adv-x="727" d="M178 0v1024h51l4 -244q39 119 127.5 191.5t206.5 72.5q93 0 140 -43l-21 -51q-25 20 -53.5 31.5t-77.5 11.5q-88 0 -160.5 -55t-115.5 -149.5t-43 -200.5v-588h-58z" />
<glyph unicode="s" horiz-adv-x="999" d="M80 225l49 29q29 -111 129 -167t250 -56q156 0 246 61.5t90 165.5q0 88 -74 139.5t-260 83.5q-213 37 -299 100.5t-86 178.5q0 80 49 144.5t136 102t198 37.5q162 0 257 -61t126 -192l-49 -29q-53 233 -334 233q-92 0 -167 -29.5t-117 -82t-42 -113.5q0 -96 76 -150.5 t268 -87.5q207 -35 291 -97t84 -175q0 -129 -108.5 -204.5t-292.5 -75.5q-160 0 -272.5 63t-147.5 182z" />
<glyph unicode="t" horiz-adv-x="708" d="M31 975v49h205v262l57 17v-279h391v-49h-391v-713q0 -231 201 -231q106 0 180 75l24 -47q-37 -35 -92 -57t-119 -22q-123 0 -187 69.5t-64 208.5v717h-205z" />
<glyph unicode="u" horiz-adv-x="1175" d="M166 344v680h57v-668q0 -160 81 -242.5t233 -82.5q129 0 220 58t138 147.5t47 177.5v610h57v-1024h-53l-2 244q-43 -121 -154.5 -192.5t-263.5 -71.5q-168 0 -264 94t-96 270z" />
<glyph unicode="v" horiz-adv-x="999" d="M41 1024h65l394 -961l397 961h61l-428 -1024h-59z" />
<glyph unicode="w" horiz-adv-x="1624" d="M63 1024h62l311 -952l346 952h60l348 -952l309 952h64l-344 -1024h-58l-350 948l-348 -948h-57z" />
<glyph unicode="x" horiz-adv-x="989" d="M43 0l414 530l-398 494h78l359 -446l344 446h71l-381 -489l431 -535h-78l-391 485l-377 -485h-72z" />
<glyph unicode="y" horiz-adv-x="1005" d="M0 -371l25 47q44 -67 144 -67h3q78 0 133 44t103 159l75 186l-434 1026h66l354 -858l43 -103l41 109l346 852h64l-504 -1225q-55 -133 -121 -186t-166 -53q-123 0 -172 69z" />
<glyph unicode="z" horiz-adv-x="991" d="M74 975v49h821v-47l-621 -789l-118 -139h768v-49h-838v47l651 821l92 107h-755z" />
<glyph unicode="{" horiz-adv-x="565" d="M25 559v49q113 0 172 50.5t59 144.5v483q0 111 66.5 172.5t189.5 61.5l4 -47q-98 0 -151.5 -49.5t-53.5 -135.5v-487q0 -84 -44 -139.5t-128 -77.5q84 -23 128 -79t44 -140v-488q0 -88 53.5 -136t151.5 -48l-4 -49q-123 0 -189.5 62.5t-66.5 172.5v483q0 96 -59.5 146.5 t-171.5 50.5z" />
<glyph unicode="|" horiz-adv-x="370" d="M160 -344v1839h51v-1839h-51z" />
<glyph unicode="}" horiz-adv-x="565" d="M49 -307q98 0 151.5 48t53.5 136v488q0 84 45 140t129 79q-84 23 -129 78t-45 139v487q0 86 -53.5 135.5t-151.5 49.5l4 47q123 0 189.5 -61.5t66.5 -172.5v-483q0 -94 60.5 -144.5t173.5 -50.5v-49q-113 0 -173.5 -51t-60.5 -146v-483q0 -111 -66.5 -173t-189.5 -62z " />
<glyph unicode="~" horiz-adv-x="1003" d="M88 582q29 213 209 213q63 0 111.5 -20.5t109.5 -59.5q57 -37 96 -54.5t91 -17.5q68 0 104.5 40t50.5 122h55q-24 -213 -206 -213q-61 0 -108.5 19.5t-113.5 60.5q-55 37 -96 54t-92 17q-68 0 -104.5 -39.5t-51.5 -121.5h-55z" />
<glyph unicode="&#xa1;" horiz-adv-x="391" d="M133 975q0 27 17.5 44t44.5 17q29 0 46 -17.5t17 -43.5q0 -27 -17.5 -44.5t-45.5 -17.5q-27 0 -44.5 17.5t-17.5 44.5zM166 -328v707l4 283h51l4 -283v-707h-59z" />
<glyph unicode="&#xa2;" horiz-adv-x="1112" d="M119 512q0 238 114.5 378t319.5 152v187h49v-185q152 -2 256.5 -74.5t142.5 -203.5l-53 -27q-33 121 -123 187.5t-223 68.5v-966q135 4 235.5 76.5t120.5 193.5l52 -18q-29 -134 -141.5 -215.5t-266.5 -85.5v-185h-49v187q-207 10 -320.5 150t-113.5 380zM174 512 q0 -217 99.5 -344t279.5 -139v966q-180 -14 -279.5 -141t-99.5 -342z" />
<glyph unicode="&#xa3;" horiz-adv-x="1193" d="M72 123q0 68 58 108.5t157 40.5q82 0 140 -26.5t124 -75.5q41 70 41 154q0 74 -25.5 137t-91.5 149h-285v49h246q-80 102 -110.5 175t-30.5 157q0 172 110.5 276.5t290.5 104.5q152 0 248 -81t115 -220l-51 -24q-16 125 -100.5 199.5t-213.5 74.5q-158 0 -251 -88 t-93 -236q0 -78 31 -148.5t113 -178.5l8 -11h424v-49h-389q57 -82 80.5 -146.5t23.5 -135.5q0 -102 -55 -187q68 -57 125 -85.5t137 -28.5q219 0 223 223h49q0 -135 -71.5 -202.5t-196.5 -67.5q-92 0 -155.5 31.5t-139.5 92.5q-51 -57 -125 -90.5t-162 -33.5 q-90 0 -144 38.5t-54 104.5zM125 123q0 -45 41 -71.5t108 -26.5q78 0 141.5 27.5t106.5 78.5q-55 45 -109.5 69.5t-123.5 24.5q-76 0 -120 -27.5t-44 -74.5z" />
<glyph unicode="&#xa4;" horiz-adv-x="1257" d="M131 217l205 205q-82 104 -82 258q0 152 78 252l-201 203l39 39l201 -201q98 92 258 92q156 0 258 -92l203 201l36 -37l-202 -207q78 -96 77 -250q1 -158 -81 -258l206 -207l-36 -39l-207 207q-98 -92 -254 -92t-254 92l-205 -207zM311 680q0 -154 87 -246t231 -92 q143 0 229 92t86 246q0 152 -86 243t-229 91q-145 0 -231.5 -91.5t-86.5 -242.5z" />
<glyph unicode="&#xa5;" horiz-adv-x="1183" d="M86 1352h68l395 -697l41 -80h4l41 80l395 697h68l-461 -791l37 2h362v-47h-418v-209h418v-45h-418v-262h-53v262h-418v45h418v209h-418v47h363l37 -2z" />
<glyph unicode="&#xa6;" horiz-adv-x="399" d="M174 -344v747h51v-747h-51zM174 748v747h51v-747h-51z" />
<glyph unicode="&#xa7;" horiz-adv-x="1122" d="M94 600q0 94 66.5 160.5t175.5 95.5q-72 39 -103.5 94.5t-31.5 132.5q0 80 45 145.5t131 104.5t207 39q143 0 237 -45t133 -135l-43 -33q-63 164 -327 164q-154 0 -240 -65.5t-86 -170.5q0 -109 86 -167t303 -91q225 -33 317.5 -97t92.5 -185q0 -94 -67.5 -161 t-176.5 -97q72 -37 104.5 -92.5t32.5 -133.5q0 -80 -45 -145t-132 -104t-206 -39q-291 0 -372 180l45 33q61 -164 327 -164q154 0 240 65.5t86 169.5q0 74 -37 123t-121 82t-231 55q-227 33 -318.5 97.5t-91.5 183.5zM152 602q0 -66 33.5 -108.5t112.5 -71.5t218 -51 q152 -23 232 -54q108 25 179.5 81.5t71.5 146.5q0 96 -80.5 148t-285.5 83q-141 18 -234 53q-106 -27 -176.5 -83t-70.5 -144z" />
<glyph unicode="&#xa8;" horiz-adv-x="1107" d="M305 1278q0 27 16.5 42t43.5 15q26 0 42.5 -15t16.5 -42t-16.5 -43t-42.5 -16q-27 0 -43.5 16t-16.5 43zM686 1278q0 27 16.5 42t42.5 15q27 0 42.5 -15t15.5 -42t-15.5 -43t-42.5 -16t-43 16t-16 43z" />
<glyph unicode="&#xa9;" horiz-adv-x="1640" d="M119 676q0 207 87 364.5t246.5 244.5t366.5 87q209 0 368 -87t246 -244.5t87 -364.5t-87 -364.5t-246 -244.5t-368 -87q-207 0 -366.5 87t-246.5 244.5t-87 364.5zM174 676q0 -193 81 -339.5t226.5 -227t337.5 -80.5q193 0 339.5 80.5t227 227t80.5 339.5t-80.5 339 t-227 227t-339.5 81q-192 0 -337.5 -81t-226.5 -227.5t-81 -338.5zM469 672q0 178 99.5 278.5t273.5 100.5q237 0 309 -203l-47 -23q-55 178 -264 179q-150 0 -234 -88.5t-84 -243.5q0 -156 84 -244t234 -88q102 0 177 52t97 143l45 -19q-29 -102 -115 -162.5t-202 -60.5 q-174 0 -273.5 100.5t-99.5 278.5z" />
<glyph unicode="&#xaa;" horiz-adv-x="733" d="M63 836q0 80 62.5 129t196.5 71l225 39v60q0 86 -52.5 135t-148.5 49q-90 0 -146.5 -35t-82.5 -108l-41 18q27 80 96.5 124t173.5 44q119 0 186.5 -57.5t67.5 -165.5v-344q0 -84 66 -84q31 0 51 10l-2 -39q-25 -14 -60 -14q-104 0 -104 127v2q-29 -61 -104.5 -95 t-161.5 -34q-102 0 -162 44t-60 124zM74 449v43h616v-43h-616zM117 836q0 -59 46 -91t128 -32q57 0 116.5 20.5t99.5 62.5t40 99v141l-205 -39q-119 -20 -172 -59t-53 -102z" />
<glyph unicode="&#xab;" horiz-adv-x="819" d="M96 543l289 401h68l-291 -401l291 -402h-68zM360 543l289 401h68l-291 -401l291 -402h-68z" />
<glyph unicode="&#xac;" horiz-adv-x="1236" d="M152 621v53h933v-330h-57v277h-876z" />
<glyph unicode="&#xad;" horiz-adv-x="888" d="M147 520v60h594v-60h-594z" />
<glyph unicode="&#xae;" horiz-adv-x="1640" d="M119 676q0 207 87 364.5t246.5 244.5t366.5 87q209 0 368 -87t246 -244.5t87 -364.5t-87 -364.5t-246 -244.5t-368 -87q-207 0 -366.5 87t-246.5 244.5t-87 364.5zM174 676q0 -193 81 -339.5t226.5 -227t337.5 -80.5q193 0 339.5 80.5t227 227t80.5 339.5t-80.5 339 t-227 227t-339.5 81t-338 -81t-226 -227.5t-81 -338.5zM567 293v758h316q123 0 187.5 -54.5t64.5 -158.5q0 -95 -52.5 -148t-152.5 -63l219 -334h-59l-216 332h-253v-332h-54zM621 666h262q203 4 202 172q0 170 -202 170h-262v-342z" />
<glyph unicode="&#xaf;" horiz-adv-x="1107" d="M248 1235v49h612v-49h-612z" />
<glyph unicode="&#xb0;" horiz-adv-x="792" d="M109 1083q0 129 78.5 209t207.5 80t209 -80t80 -209q0 -127 -79 -206.5t-210 -79.5q-129 0 -207.5 79.5t-78.5 206.5zM162 1083q0 -106 64.5 -172.5t168.5 -66.5q107 0 171.5 66.5t64.5 172.5t-64.5 173t-171.5 67q-104 0 -168.5 -66.5t-64.5 -173.5z" />
<glyph unicode="&#xb1;" horiz-adv-x="1236" d="M152 0v51h933v-51h-933zM152 737v51h440v492h55v-492h438v-51h-438v-501h-55v501h-440z" />
<glyph unicode="&#xb2;" horiz-adv-x="688" d="M61 1251q8 115 81 184.5t192 69.5q121 0 190.5 -67.5t69.5 -177.5q0 -168 -258 -377l-189 -154v-2h68h410v-45h-549v43q111 90 225 188q115 94 177.5 178.5t62.5 168.5q0 92 -56.5 146t-152.5 54q-98 0 -157.5 -59.5t-63.5 -163.5z" />
<glyph unicode="&#xb3;" horiz-adv-x="649" d="M33 858l47 25q18 -80 74.5 -124t152.5 -44q92 0 150.5 49t58.5 135q0 80 -51 125t-150 45h-51v43h51q84 0 132.5 49t48.5 123q0 82 -50.5 129t-140.5 47q-80 0 -132 -39t-69 -106l-47 20q20 78 88 124t160 46q115 0 180.5 -60.5t65.5 -156.5q0 -76 -40 -126t-112 -68v-4 q74 -8 122 -61.5t48 -131.5q0 -102 -74.5 -164.5t-189.5 -62.5q-106 0 -176 49t-96 139z" />
<glyph unicode="&#xb4;" horiz-adv-x="1107" d="M571 1194l170 309h64l-184 -309h-50z" />
<glyph unicode="&#xb5;" horiz-adv-x="1146" d="M156 -430v1454h57v-668q0 -158 86 -241.5t229 -83.5q113 0 205 50t145.5 135t55.5 185v623h57v-1024h-53l-2 246q-43 -121 -154.5 -193.5t-263.5 -72.5q-104 0 -184 47t-121 137v-594h-57z" />
<glyph unicode="&#xb6;" horiz-adv-x="1110" d="M66 924q0 127 60 224t171 150.5t256 53.5h389v-1557h-55v1508h-281v-1508h-53v701q-145 0 -256 53t-171 150.5t-60 224.5zM121 924q0 -172 117.5 -275.5t314.5 -103.5v758q-197 0 -314.5 -103.5t-117.5 -275.5z" />
<glyph unicode="&#xb7;" horiz-adv-x="405" d="M141 735q0 29 17.5 45.5t44.5 16.5q28 0 44.5 -16.5t16.5 -45.5q0 -27 -16.5 -44t-44.5 -17q-27 0 -44.5 17.5t-17.5 43.5z" />
<glyph unicode="&#xb8;" horiz-adv-x="1107" d="M385 -336l25 41q35 -43 75.5 -61.5t94.5 -18.5q63 0 103 38t40 101q0 68 -47 121.5t-176 120.5l51 10q121 -55 173 -116.5t52 -137.5q0 -80 -53 -130t-139 -50q-66 0 -114 18.5t-85 63.5z" />
<glyph unicode="&#xb9;" horiz-adv-x="415" d="M23 1282v45q61 18 130.5 66.5t100.5 101.5h45v-813h-53v612q0 45 4 136q-39 -47 -100.5 -86t-126.5 -62z" />
<glyph unicode="&#xba;" horiz-adv-x="727" d="M72 1016q0 176 71.5 261t221.5 85t220 -85t70 -261t-70.5 -261t-219.5 -85q-150 0 -221.5 85t-71.5 261zM88 449v43h553v-43h-553zM125 1016q0 -154 58.5 -227.5t181.5 -73.5q122 0 179.5 73.5t57.5 227.5t-57.5 228.5t-179.5 74.5q-123 0 -181.5 -75t-58.5 -228z" />
<glyph unicode="&#xbb;" horiz-adv-x="813" d="M96 141l291 402l-291 401h68l289 -401l-289 -402h-68zM360 141l291 402l-291 401h68l289 -401l-289 -402h-68z" />
<glyph unicode="&#xbc;" horiz-adv-x="1359" d="M23 1149v45q61 18 130.5 66.5t100.5 101.5h45v-813h-53v612q0 90 4 135q-39 -47 -100.5 -86t-126.5 -61zM123 0l957 1352h61l-956 -1352h-62zM703 229v37l389 539h65v-533h162v-43h-162v-237h-49v237h-405zM756 272h352v385q0 66 2 99h-4l-65 -97z" />
<glyph unicode="&#xbd;" horiz-adv-x="1533" d="M23 1149v45q61 18 130.5 66.5t100.5 101.5h45v-813h-53v612q0 90 4 135q-39 -47 -100.5 -86t-126.5 -61zM123 0l957 1352h61l-956 -1352h-62zM909 561q8 115 81 184.5t192 69.5q121 0 190.5 -67.5t69.5 -178.5q0 -168 -258 -376l-189 -154v-2h68h410v-45h-549v43 q111 90 225 188q115 94 177.5 178t62.5 168q0 92 -56.5 146.5t-152.5 54.5q-98 0 -157.5 -59.5t-63.5 -163.5z" />
<glyph unicode="&#xbe;" horiz-adv-x="1591" d="M33 725l47 25q18 -80 74.5 -124t152.5 -44q92 0 150.5 49t58.5 135q0 80 -51 125t-150 45h-51v43h51q84 0 132.5 49t48.5 123q0 82 -50.5 129t-140.5 47q-80 0 -132 -39t-69 -106l-47 20q20 78 88 124t160 46q115 0 180.5 -60.5t65.5 -156.5q0 -76 -40 -126t-112 -68v-5 q74 -8 122 -61t48 -131q0 -102 -74.5 -164.5t-189.5 -62.5q-106 0 -176 49t-96 139zM356 0l957 1352h61l-956 -1352h-62zM936 229v37l389 539h65v-533h162v-43h-162v-237h-49v237h-405zM989 272h352v385q0 66 2 99h-4l-65 -97z" />
<glyph unicode="&#xbf;" horiz-adv-x="987" d="M84 -10q0 172 97.5 278.5t303.5 159.5v258h58v-291q-152 -43 -239 -95t-125 -126t-38 -180q0 -139 94.5 -219t249.5 -80q346 0 389 321l52 -26q-59 -346 -443 -346q-178 0 -288.5 93t-110.5 253zM453 967q0 27 17 44t44 17q29 0 45 -16.5t16 -44.5q0 -27 -16 -44.5 t-45 -17.5q-27 0 -44 17.5t-17 44.5z" />
<glyph unicode="&#xc0;" horiz-adv-x="1228" d="M31 0l551 1352h65l551 -1352h-59l-189 459h-671l-189 -459h-59zM299 512h629l-273 670l-41 110l-41 -108zM410 1825h67l146 -303h-50z" />
<glyph unicode="&#xc1;" horiz-adv-x="1228" d="M31 0l551 1352h65l551 -1352h-59l-189 459h-671l-189 -459h-59zM299 512h629l-273 670l-41 110l-41 -108zM598 1522l145 303h68l-164 -303h-49z" />
<glyph unicode="&#xc2;" horiz-adv-x="1228" d="M31 0l551 1352h65l551 -1352h-59l-189 459h-671l-189 -459h-59zM299 512h629l-273 670l-41 110l-41 -108zM356 1518l224 301h69l225 -301h-57l-203 260l-202 -260h-56z" />
<glyph unicode="&#xc3;" horiz-adv-x="1228" d="M31 0l551 1352h65l551 -1352h-59l-189 459h-671l-189 -459h-59zM282 1547q16 98 60.5 144t126.5 46q55 0 90 -19.5t73 -56.5q33 -31 62 -47t70 -16q61 0 90.5 33.5t44.5 107.5h49q-17 -96 -61 -143t-123 -47q-55 0 -90 19.5t-74 55.5q-37 33 -64.5 49.5t-68.5 16.5 q-61 0 -90 -34t-46 -109h-49zM299 512h629l-273 670l-41 110l-41 -108z" />
<glyph unicode="&#xc4;" horiz-adv-x="1228" d="M31 0l551 1352h65l551 -1352h-59l-189 459h-671l-189 -459h-59zM299 512h629l-273 670l-41 110l-41 -108zM362 1606q0 27 16.5 42t43.5 15q26 0 42.5 -15t16.5 -42t-16.5 -43t-42.5 -16q-27 0 -43.5 16t-16.5 43zM743 1606q0 27 16.5 42t42.5 15q27 0 42.5 -15t15.5 -42 t-15.5 -43t-42.5 -16t-43 16t-16 43z" />
<glyph unicode="&#xc5;" horiz-adv-x="1228" d="M31 0l536 1317q-55 12 -88 54t-33 102q0 74 46.5 117.5t121.5 43.5q76 0 122 -44t46 -117q0 -59 -32.5 -101.5t-87.5 -54.5l536 -1317h-59l-189 459h-671l-189 -459h-59zM299 512h629l-273 670l-41 110l-41 -108zM494 1473q0 -54 33.5 -86.5t86.5 -32.5t87 32.5t34 86.5 q0 55 -33.5 87.5t-87.5 32.5q-53 0 -86.5 -32.5t-33.5 -87.5z" />
<glyph unicode="&#xc6;" horiz-adv-x="1839" d="M-10 0l846 1352h901v-52h-779v-587h619v-54h-619v-608h811v-51h-868v504h-528l-314 -504h-69zM403 557h498v743h-37z" />
<glyph unicode="&#xc7;" horiz-adv-x="1343" d="M119 676q0 211 74.5 368.5t212 242.5t317.5 85q420 0 524 -348l-55 -27q-98 324 -467 324q-164 0 -287 -79t-191.5 -224.5t-68.5 -341.5q0 -197 68.5 -342.5t191.5 -224t287 -78.5q182 0 308 86t171 243l58 -20q-52 -164 -183 -257t-319 -103q82 -45 117.5 -99.5 t35.5 -118.5q0 -80 -53 -130t-139 -50q-66 0 -114 18.5t-85 63.5l25 41q35 -43 76 -61.5t94 -18.5q63 0 103 38t40 101q0 61 -38 109.5t-138 108.5q-170 8 -298 96t-197.5 241.5t-69.5 356.5z" />
<glyph unicode="&#xc8;" d="M207 0v1352h905v-52h-848v-585h676v-51h-676v-613h881v-51h-938zM492 1825h67l146 -303h-50z" />
<glyph unicode="&#xc9;" d="M207 0v1352h905v-52h-848v-585h676v-51h-676v-613h881v-51h-938zM623 1522l147 303h66l-162 -303h-51z" />
<glyph unicode="&#xca;" d="M207 0v1352h905v-52h-848v-585h676v-51h-676v-613h881v-51h-938zM399 1518l224 301h69l226 -301h-58l-203 260l-202 -260h-56z" />
<glyph unicode="&#xcb;" d="M207 0v1352h905v-52h-848v-585h676v-51h-676v-613h881v-51h-938zM405 1606q0 27 16.5 42t43.5 15q26 0 42.5 -15t16.5 -42t-16.5 -43t-42.5 -16q-27 0 -43.5 16t-16.5 43zM786 1606q0 27 16.5 42t42.5 15q27 0 42.5 -15t15.5 -42t-15.5 -43t-42.5 -16t-43 16t-16 43z" />
<glyph unicode="&#xcc;" horiz-adv-x="468" d="M31 1825h67l146 -303h-49zM207 0v1352h57v-1352h-57z" />
<glyph unicode="&#xcd;" horiz-adv-x="468" d="M207 0v1352h57v-1352h-57zM217 1522l145 303h68l-164 -303h-49z" />
<glyph unicode="&#xce;" horiz-adv-x="468" d="M-25 1518l226 301h69l226 -301h-58l-202 260l-203 -260h-58zM207 0v1352h57v-1352h-57z" />
<glyph unicode="&#xcf;" horiz-adv-x="468" d="M45 1606q0 27 16.5 42t42.5 15q27 0 42.5 -15.5t15.5 -41.5q0 -27 -15.5 -43.5t-42.5 -16.5t-43 16.5t-16 43.5zM207 0v1352h57v-1352h-57zM307 1606q0 27 16.5 42t43.5 15q26 0 41.5 -15.5t15.5 -41.5q0 -27 -15.5 -43.5t-41.5 -16.5q-27 0 -43.5 16.5t-16.5 43.5z" />
<glyph unicode="&#xd0;" horiz-adv-x="1433" d="M18 662v45h207v645h420q328 0 498 -168t170 -492q0 -340 -170 -516t-498 -176h-420v662h-207zM283 51h366q297 0 451.5 164t154.5 477q0 297 -154.5 452.5t-451.5 155.5h-366v-593h419v-45h-419v-611z" />
<glyph unicode="&#xd1;" horiz-adv-x="1437" d="M207 0v1352h74l827 -1176l70 -115l-2 136v1155h55v-1352h-76l-825 1176l-70 116h-2l4 -137v-1155h-55zM397 1547q16 98 60.5 144t126.5 46q55 0 90 -19.5t73 -56.5q33 -31 62 -47t70 -16q61 0 90.5 33.5t44.5 107.5h49q-17 -96 -61 -143t-123 -47q-55 0 -90 19.5 t-74 55.5q-37 33 -64.5 49.5t-68.5 16.5q-61 0 -90 -34t-46 -109h-49z" />
<glyph unicode="&#xd2;" horiz-adv-x="1474" d="M119 676q0 213 75.5 369.5t215 241.5t327.5 85q189 0 329 -85t215 -241.5t75 -369.5t-75 -369.5t-215 -241.5t-329 -85q-188 0 -327.5 85t-215 241.5t-75.5 369.5zM178 676q0 -197 67.5 -342.5t194.5 -224t297 -78.5t297 78.5t194.5 224t67.5 342.5t-67.5 342t-194.5 224 t-297 79t-297 -79t-194.5 -224.5t-67.5 -341.5zM532 1825h68l145 -303h-49z" />
<glyph unicode="&#xd3;" horiz-adv-x="1474" d="M119 676q0 213 75.5 369.5t215 241.5t327.5 85q189 0 329 -85t215 -241.5t75 -369.5t-75 -369.5t-215 -241.5t-329 -85q-188 0 -327.5 85t-215 241.5t-75.5 369.5zM178 676q0 -197 67.5 -342.5t194.5 -224t297 -78.5t297 78.5t194.5 224t67.5 342.5t-67.5 342t-194.5 224 t-297 79t-297 -79t-194.5 -224.5t-67.5 -341.5zM721 1522l145 303h68l-164 -303h-49z" />
<glyph unicode="&#xd4;" horiz-adv-x="1474" d="M119 676q0 213 75.5 369.5t215 241.5t327.5 85q189 0 329 -85t215 -241.5t75 -369.5t-75 -369.5t-215 -241.5t-329 -85q-188 0 -327.5 85t-215 241.5t-75.5 369.5zM178 676q0 -197 67.5 -342.5t194.5 -224t297 -78.5t297 78.5t194.5 224t67.5 342.5t-67.5 342t-194.5 224 t-297 79t-297 -79t-194.5 -224.5t-67.5 -341.5zM479 1518l223 301h70l225 -301h-57l-203 260l-202 -260h-56z" />
<glyph unicode="&#xd5;" horiz-adv-x="1474" d="M119 676q0 213 75.5 369.5t215 241.5t327.5 85q189 0 329 -85t215 -241.5t75 -369.5t-75 -369.5t-215 -241.5t-329 -85q-188 0 -327.5 85t-215 241.5t-75.5 369.5zM178 676q0 -197 67.5 -342.5t194.5 -224t297 -78.5t297 78.5t194.5 224t67.5 342.5t-67.5 342t-194.5 224 t-297 79t-297 -79t-194.5 -224.5t-67.5 -341.5zM405 1547q16 98 60.5 144t126.5 46q55 0 90 -19.5t73 -56.5q33 -31 62 -47t70 -16q61 0 90.5 33.5t44.5 107.5h49q-17 -96 -61 -143t-123 -47q-55 0 -90 19.5t-74 55.5q-37 33 -64.5 49.5t-68.5 16.5q-61 0 -90 -34t-46 -109 h-49z" />
<glyph unicode="&#xd6;" horiz-adv-x="1474" d="M119 676q0 213 75.5 369.5t215 241.5t327.5 85q189 0 329 -85t215 -241.5t75 -369.5t-75 -369.5t-215 -241.5t-329 -85q-188 0 -327.5 85t-215 241.5t-75.5 369.5zM178 676q0 -197 67.5 -342.5t194.5 -224t297 -78.5t297 78.5t194.5 224t67.5 342.5t-67.5 342t-194.5 224 t-297 79t-297 -79t-194.5 -224.5t-67.5 -341.5zM487 1606q0 27 16.5 42t43.5 15q26 0 42.5 -15t16.5 -42t-16.5 -43t-42.5 -16q-27 0 -43.5 16t-16.5 43zM868 1606q0 27 16.5 42t42.5 15q27 0 42.5 -15t15.5 -42t-15.5 -43t-42.5 -16t-43 16t-16 43z" />
<glyph unicode="&#xd7;" horiz-adv-x="1236" d="M238 303l337 338l-337 340l41 41l339 -338l338 338l43 -41l-340 -340l340 -338l-43 -43l-338 340l-339 -340z" />
<glyph unicode="&#xd8;" horiz-adv-x="1474" d="M119 676q0 213 75.5 369.5t215 241.5t327.5 85q231 0 385 -123l117 162h59l-139 -194q94 -93 145.5 -230t51.5 -311q0 -213 -75 -369.5t-215 -241.5t-329 -85q-225 0 -381 120l-118 -163h-62l143 196q-98 92 -149 229.5t-51 313.5zM178 676q0 -160 45 -286t129 -210 l738 1022q-145 119 -353 119q-170 0 -297 -79t-194.5 -224.5t-67.5 -341.5zM389 147q139 -117 348 -116q170 0 297 78.5t194.5 224t67.5 342.5q0 158 -44 283.5t-128 209.5z" />
<glyph unicode="&#xd9;" horiz-adv-x="1409" d="M190 485v867h58v-858q0 -223 118.5 -343t338.5 -120q217 0 336.5 120.5t119.5 342.5v858h58v-867q0 -244 -135.5 -374.5t-378.5 -130.5q-244 0 -379.5 131t-135.5 374zM532 1825h68l145 -303h-49z" />
<glyph unicode="&#xda;" horiz-adv-x="1409" d="M190 485v867h58v-858q0 -223 118.5 -343t338.5 -120q217 0 336.5 120.5t119.5 342.5v858h58v-867q0 -244 -135.5 -374.5t-378.5 -130.5q-244 0 -379.5 131t-135.5 374zM686 1522l145 303h68l-164 -303h-49z" />
<glyph unicode="&#xdb;" horiz-adv-x="1409" d="M190 485v867h58v-858q0 -223 118.5 -343t338.5 -120q217 0 336.5 120.5t119.5 342.5v858h58v-867q0 -244 -135.5 -374.5t-378.5 -130.5q-244 0 -379.5 131t-135.5 374zM446 1518l224 301h69l226 -301h-58l-202 260l-203 -260h-56z" />
<glyph unicode="&#xdc;" horiz-adv-x="1409" d="M190 485v867h58v-858q0 -223 118.5 -343t338.5 -120q217 0 336.5 120.5t119.5 342.5v858h58v-867q0 -244 -135.5 -374.5t-378.5 -130.5q-244 0 -379.5 131t-135.5 374zM452 1606q0 27 16.5 42t43.5 15q26 0 42.5 -15t16.5 -42t-16.5 -43t-42.5 -16q-27 0 -43.5 16 t-16.5 43zM833 1606q0 27 16.5 42t42.5 15q27 0 42.5 -15t15.5 -42t-15.5 -43t-42.5 -16t-43 16t-16 43z" />
<glyph unicode="&#xdd;" horiz-adv-x="1071" d="M31 1352h67l264 -463l175 -303l436 766h67l-475 -828v-524h-57v524zM518 1522l146 303h67l-164 -303h-49z" />
<glyph unicode="&#xde;" horiz-adv-x="1183" d="M207 0v1352h57v-271h350q240 0 362 -98t122 -289q0 -188 -122 -286.5t-362 -98.5h-350v-309h-57zM264 360h369q405 0 405 334q0 336 -405 336h-369v-670z" />
<glyph unicode="&#xdf;" horiz-adv-x="1161" d="M178 0v1049q0 223 107.5 339.5t326.5 116.5q184 0 285.5 -98t101.5 -262q0 -154 -89 -257.5t-230 -107.5v-2q182 -8 279.5 -115.5t97.5 -283.5q0 -178 -106.5 -288.5t-286.5 -110.5q-70 0 -126.5 22.5t-88.5 63.5l22 40q72 -78 193 -77q154 0 245.5 96t91.5 258 q0 180 -107.5 273.5t-289.5 93.5h-88v51h88q152 0 244 92t92 252q0 147 -87 228t-243 81q-377 0 -377 -432v-1022h-55z" />
<glyph unicode="&#xe0;" horiz-adv-x="1077" d="M98 227q0 121 91.5 193t289.5 108l346 64v115q0 137 -79.5 212.5t-229.5 75.5q-135 0 -222 -56t-130 -177l-45 33q92 250 397 249q176 0 271.5 -85t95.5 -248v-549q0 -66 27.5 -99.5t78.5 -33.5q53 0 78 16l-4 -47q-31 -18 -82 -18q-156 0 -156 196v2 q-43 -94 -157.5 -146t-243.5 -52q-152 0 -239 65.5t-87 181.5zM158 227q0 -94 72.5 -145t203.5 -51q86 0 177 31.5t152.5 96t61.5 156.5v228l-319 -60q-184 -33 -266 -95t-82 -161zM309 1503h64l170 -309h-50z" />
<glyph unicode="&#xe1;" horiz-adv-x="1077" d="M98 227q0 121 91.5 193t289.5 108l346 64v115q0 137 -79.5 212.5t-229.5 75.5q-135 0 -222 -56t-130 -177l-45 33q92 250 397 249q176 0 271.5 -85t95.5 -248v-549q0 -66 27.5 -99.5t78.5 -33.5q53 0 78 16l-4 -47q-31 -18 -82 -18q-156 0 -156 196v2 q-43 -94 -157.5 -146t-243.5 -52q-152 0 -239 65.5t-87 181.5zM158 227q0 -94 72.5 -145t203.5 -51q86 0 177 31.5t152.5 96t61.5 156.5v228l-319 -60q-184 -33 -266 -95t-82 -161zM479 1194l170 309h64l-184 -309h-50z" />
<glyph unicode="&#xe2;" horiz-adv-x="1077" d="M98 227q0 121 91.5 193t289.5 108l346 64v115q0 137 -79.5 212.5t-229.5 75.5q-135 0 -222 -56t-130 -177l-45 33q92 250 397 249q176 0 271.5 -85t95.5 -248v-549q0 -66 27.5 -99.5t78.5 -33.5q53 0 78 16l-4 -47q-31 -18 -82 -18q-156 0 -156 196v2 q-43 -94 -157.5 -146t-243.5 -52q-152 0 -239 65.5t-87 181.5zM158 227q0 -94 72.5 -145t203.5 -51q86 0 177 31.5t152.5 96t61.5 156.5v228l-319 -60q-184 -33 -266 -95t-82 -161zM254 1192l221 299h66l223 -299h-55l-201 256l-199 -256h-55z" />
<glyph unicode="&#xe3;" horiz-adv-x="1077" d="M98 227q0 121 91.5 193t289.5 108l346 64v115q0 137 -79.5 212.5t-229.5 75.5q-135 0 -222 -56t-130 -177l-45 33q92 250 397 249q176 0 271.5 -85t95.5 -248v-549q0 -66 27.5 -99.5t78.5 -33.5q53 0 78 16l-4 -47q-31 -18 -82 -18q-156 0 -156 196v2 q-43 -94 -157.5 -146t-243.5 -52q-152 0 -239 65.5t-87 181.5zM158 227q0 -94 72.5 -145t203.5 -51q86 0 177 31.5t152.5 96t61.5 156.5v228l-319 -60q-184 -33 -266 -95t-82 -161zM176 1219q16 98 60.5 144t126.5 46q55 0 90 -19.5t73 -56.5q33 -31 62 -47t70 -16 q61 0 90.5 33.5t44.5 107.5h49q-17 -96 -61 -143t-123 -47q-55 0 -90 19.5t-74 55.5q-37 33 -64.5 49.5t-68.5 16.5q-61 0 -90 -34t-46 -109h-49z" />
<glyph unicode="&#xe4;" horiz-adv-x="1077" d="M98 227q0 121 91.5 193t289.5 108l346 64v115q0 137 -79.5 212.5t-229.5 75.5q-135 0 -222 -56t-130 -177l-45 33q92 250 397 249q176 0 271.5 -85t95.5 -248v-549q0 -66 27.5 -99.5t78.5 -33.5q53 0 78 16l-4 -47q-31 -18 -82 -18q-156 0 -156 196v2 q-43 -94 -157.5 -146t-243.5 -52q-152 0 -239 65.5t-87 181.5zM158 227q0 -94 72.5 -145t203.5 -51q86 0 177 31.5t152.5 96t61.5 156.5v228l-319 -60q-184 -33 -266 -95t-82 -161zM258 1278q0 27 16.5 42t43.5 15q26 0 42.5 -15t16.5 -42t-16.5 -43t-42.5 -16 q-27 0 -43.5 16t-16.5 43zM639 1278q0 27 16.5 42t42.5 15q27 0 42.5 -15t15.5 -42t-15.5 -43t-42.5 -16t-43 16t-16 43z" />
<glyph unicode="&#xe5;" horiz-adv-x="1077" d="M98 227q0 121 91.5 193t289.5 108l346 64v115q0 137 -79.5 212.5t-229.5 75.5q-135 0 -222 -56t-130 -177l-45 33q92 250 397 249q176 0 271.5 -85t95.5 -248v-549q0 -66 27.5 -99.5t78.5 -33.5q53 0 78 16l-4 -47q-31 -18 -82 -18q-156 0 -156 196v2 q-43 -94 -157.5 -146t-243.5 -52q-152 0 -239 65.5t-87 181.5zM158 227q0 -94 72.5 -145t203.5 -51q86 0 177 31.5t152.5 96t61.5 156.5v228l-319 -60q-184 -33 -266 -95t-82 -161zM320 1356q0 78 52 128t132 50t132 -50t52 -128t-52 -128t-132 -50t-132 50t-52 128z M367 1356q0 -57 40 -96t97 -39t97 38.5t40 96.5q0 59 -39 98t-98 39q-57 0 -97 -39t-40 -98z" />
<glyph unicode="&#xe6;" horiz-adv-x="1779" d="M98 227q0 123 92.5 201t284.5 98l352 37v137q0 141 -80.5 218t-230.5 77q-133 0 -220 -57t-132 -176l-45 33q94 250 397 249q154 0 246 -69.5t112 -200.5q49 129 148.5 199.5t234.5 70.5q207 0 313.5 -126.5t106.5 -372.5v-33h-796v-31q8 -211 110.5 -330.5t270.5 -119.5 q262 0 350 213l47 -25q-51 -117 -147.5 -178t-249.5 -61q-152 0 -257.5 82.5t-146.5 236.5q-25 -162 -150.5 -240.5t-287.5 -78.5q-147 0 -234.5 64.5t-87.5 182.5zM158 227q0 -96 75.5 -146t200.5 -50q92 0 181.5 34.5t150.5 115.5t61 208v127l-325 -35 q-180 -18 -262 -84.5t-82 -169.5zM881 565h745q-12 430 -369 430q-163 0 -263.5 -113.5t-112.5 -316.5z" />
<glyph unicode="&#xe7;" horiz-adv-x="1089" d="M109 512q0 250 125.5 391t349.5 141q154 0 261 -72.5t146 -205.5l-51 -27q-33 123 -126 189.5t-230 66.5q-197 0 -307.5 -129t-110.5 -354q0 -227 108.5 -354t305.5 -127q141 0 244.5 72.5t123.5 195.5l51 -18q-28 -134 -138.5 -215.5t-262.5 -85.5q82 -47 118 -100.5 t36 -117.5q0 -80 -53.5 -130t-139.5 -50q-66 0 -114 18.5t-85 63.5l25 41q35 -43 76 -61.5t94 -18.5q63 0 103 38t40 101q0 61 -38.5 110.5t-141.5 107.5q-197 20 -303 158.5t-106 371.5z" />
<glyph unicode="&#xe8;" horiz-adv-x="1112" d="M109 512q0 250 122.5 391t339.5 141q207 0 323 -142t116 -386l-2 -35h-842q8 -213 117.5 -331.5t300.5 -118.5q125 0 223 56t145 157l47 -25q-55 -113 -163.5 -176t-251.5 -63q-223 0 -349 141t-126 391zM166 535h790q-6 217 -105 338.5t-280 121.5q-186 0 -293.5 -121.5 t-111.5 -338.5zM364 1503h64l170 -309h-50z" />
<glyph unicode="&#xe9;" horiz-adv-x="1112" d="M109 512q0 250 122.5 391t339.5 141q207 0 323 -142t116 -386l-2 -35h-842q8 -213 117.5 -331.5t300.5 -118.5q125 0 223 56t145 157l47 -25q-55 -113 -163.5 -176t-251.5 -63q-223 0 -349 141t-126 391zM166 535h790q-6 217 -105 338.5t-280 121.5q-186 0 -293.5 -121.5 t-111.5 -338.5zM534 1194l170 309h64l-184 -309h-50z" />
<glyph unicode="&#xea;" horiz-adv-x="1112" d="M109 512q0 250 122.5 391t339.5 141q207 0 323 -142t116 -386l-2 -35h-842q8 -213 117.5 -331.5t300.5 -118.5q125 0 223 56t145 157l47 -25q-55 -113 -163.5 -176t-251.5 -63q-223 0 -349 141t-126 391zM166 535h790q-6 217 -105 338.5t-280 121.5q-186 0 -293.5 -121.5 t-111.5 -338.5zM309 1192l221 299h66l223 -299h-55l-201 256l-199 -256h-55z" />
<glyph unicode="&#xeb;" horiz-adv-x="1112" d="M109 512q0 250 122.5 391t339.5 141q207 0 323 -142t116 -386l-2 -35h-842q8 -213 117.5 -331.5t300.5 -118.5q125 0 223 56t145 157l47 -25q-55 -113 -163.5 -176t-251.5 -63q-223 0 -349 141t-126 391zM166 535h790q-6 217 -105 338.5t-280 121.5q-186 0 -293.5 -121.5 t-111.5 -338.5zM313 1278q0 27 16.5 42t43.5 15q26 0 42.5 -15t16.5 -42t-16.5 -43t-42.5 -16q-27 0 -43.5 16t-16.5 43zM694 1278q0 27 16.5 42t42.5 15q27 0 42.5 -15t15.5 -42t-15.5 -43t-42.5 -16t-43 16t-16 43z" />
<glyph unicode="&#xec;" horiz-adv-x="411" d="M6 1503h64l170 -309h-50zM178 0v1024h58v-1024h-58z" />
<glyph unicode="&#xed;" horiz-adv-x="411" d="M176 1194l170 309h64l-184 -309h-50zM178 0v1024h58v-1024h-58z" />
<glyph unicode="&#xee;" horiz-adv-x="411" d="M-49 1192l221 299h66l223 -299h-55l-201 256l-199 -256h-55zM178 0v1024h58v-1024h-58z" />
<glyph unicode="&#xef;" horiz-adv-x="411" d="M33 1278q0 27 16.5 42t42.5 15q27 0 43.5 -15t16.5 -42t-16.5 -43t-43.5 -16q-26 0 -42.5 16t-16.5 43zM178 0v1024h58v-1024h-58zM260 1278q0 27 16.5 42t42.5 15q27 0 43.5 -15t16.5 -42t-16.5 -43t-43.5 -16q-26 0 -42.5 16t-16.5 43z" />
<glyph unicode="&#xf0;" horiz-adv-x="1198" d="M109 485q0 154 59 268.5t164.5 177t245.5 62.5q162 0 271 -70.5t157 -199.5q-33 317 -191 520l-360 -78l-11 39l342 74q-121 139 -309 217h94q168 -82 271 -207l237 55l13 -40l-222 -48q190 -256 191 -673q0 -295 -123 -448.5t-346 -153.5t-353 137t-130 368zM168 485 q0 -209 114.5 -331.5t311.5 -122.5q190 0 298.5 129t115.5 358q0 115 -49.5 212t-145.5 155.5t-231 58.5q-188 0 -301 -125t-113 -334z" />
<glyph unicode="&#xf1;" horiz-adv-x="1191" d="M178 0v1024h53v-246q43 123 154 194.5t258 71.5q178 0 281.5 -98t103.5 -276v-670h-57v655q0 164 -90 252t-246 88q-111 0 -202 -52t-144 -141t-53 -200v-602h-58zM278 1219q16 98 60.5 144t126.5 46q55 0 90 -19.5t73 -56.5q33 -31 62 -47t70 -16q61 0 90.5 33.5 t44.5 107.5h49q-17 -96 -61 -143t-123 -47q-55 0 -90 19.5t-74 55.5q-37 33 -64.5 49.5t-68.5 16.5q-61 0 -90 -34t-46 -109h-49z" />
<glyph unicode="&#xf2;" horiz-adv-x="1179" d="M109 512q0 248 129 390t354 142q223 0 351 -141t128 -391t-128 -391t-351 -141q-225 0 -354 142t-129 390zM166 512q0 -225 113.5 -354t312.5 -129q197 0 309.5 129t112.5 354t-113 354t-309 129q-199 0 -312.5 -129t-113.5 -354zM391 1503h64l170 -309h-50z" />
<glyph unicode="&#xf3;" horiz-adv-x="1179" d="M109 512q0 248 129 390t354 142q223 0 351 -141t128 -391t-128 -391t-351 -141q-225 0 -354 142t-129 390zM166 512q0 -225 113.5 -354t312.5 -129q197 0 309.5 129t112.5 354t-113 354t-309 129q-199 0 -312.5 -129t-113.5 -354zM561 1194l170 309h64l-184 -309h-50z " />
<glyph unicode="&#xf4;" horiz-adv-x="1179" d="M109 512q0 248 129 390t354 142q223 0 351 -141t128 -391t-128 -391t-351 -141q-225 0 -354 142t-129 390zM166 512q0 -225 113.5 -354t312.5 -129q197 0 309.5 129t112.5 354t-113 354t-309 129q-199 0 -312.5 -129t-113.5 -354zM336 1192l221 299h66l223 -299h-55 l-201 256l-199 -256h-55z" />
<glyph unicode="&#xf5;" horiz-adv-x="1179" d="M109 512q0 248 129 390t354 142q223 0 351 -141t128 -391t-128 -391t-351 -141q-225 0 -354 142t-129 390zM166 512q0 -225 113.5 -354t312.5 -129q197 0 309.5 129t112.5 354t-113 354t-309 129q-199 0 -312.5 -129t-113.5 -354zM260 1219q16 98 60.5 144t126.5 46 q55 0 90 -19.5t73 -56.5q33 -31 62 -47t70 -16q61 0 90.5 33.5t44.5 107.5h49q-17 -96 -61 -143t-123 -47q-55 0 -90 19.5t-74 55.5q-37 33 -64.5 49.5t-68.5 16.5q-61 0 -90 -34t-46 -109h-49z" />
<glyph unicode="&#xf6;" horiz-adv-x="1179" d="M109 512q0 248 129 390t354 142q223 0 351 -141t128 -391t-128 -391t-351 -141q-225 0 -354 142t-129 390zM166 512q0 -225 113.5 -354t312.5 -129q197 0 309.5 129t112.5 354t-113 354t-309 129q-199 0 -312.5 -129t-113.5 -354zM340 1278q0 27 16.5 42t43.5 15 q26 0 42.5 -15t16.5 -42t-16.5 -43t-42.5 -16q-27 0 -43.5 16t-16.5 43zM721 1278q0 27 16.5 42t42.5 15q27 0 42.5 -15t15.5 -42t-15.5 -43t-42.5 -16t-43 16t-16 43z" />
<glyph unicode="&#xf7;" horiz-adv-x="1236" d="M152 621v53h933v-53h-933zM557 266q0 29 17.5 45.5t43.5 16.5q29 0 45.5 -16.5t16.5 -45.5q0 -27 -16.5 -44t-45.5 -17q-27 0 -44 17.5t-17 43.5zM557 1032q0 29 17.5 45.5t43.5 16.5q29 0 45.5 -16.5t16.5 -45.5q0 -27 -16.5 -44t-45.5 -17q-27 0 -44 17.5t-17 43.5z " />
<glyph unicode="&#xf8;" horiz-adv-x="1181" d="M109 512q0 248 129 390t354 142q188 0 311 -104l111 143h61l-137 -174q133 -139 133 -397q0 -250 -128 -391t-351 -141q-182 0 -305 96l-111 -139h-61l135 172q-141 145 -141 403zM166 512q0 -233 119 -358h2l55 73l528 670q-111 98 -278 98q-199 0 -312.5 -129 t-113.5 -354zM319 119q109 -90 273 -90q196 0 309 129t113 354q0 223 -111 352h-2l-43 -57z" />
<glyph unicode="&#xf9;" horiz-adv-x="1175" d="M166 344v680h57v-668q0 -160 81 -242.5t233 -82.5q129 0 220 58t138 147.5t47 177.5v610h57v-1024h-53l-2 244q-43 -121 -154.5 -192.5t-263.5 -71.5q-168 0 -264 94t-96 270zM385 1503h64l170 -309h-50z" />
<glyph unicode="&#xfa;" horiz-adv-x="1175" d="M166 344v680h57v-668q0 -160 81 -242.5t233 -82.5q129 0 220 58t138 147.5t47 177.5v610h57v-1024h-53l-2 244q-43 -121 -154.5 -192.5t-263.5 -71.5q-168 0 -264 94t-96 270zM555 1194l170 309h64l-184 -309h-50z" />
<glyph unicode="&#xfb;" horiz-adv-x="1175" d="M166 344v680h57v-668q0 -160 81 -242.5t233 -82.5q129 0 220 58t138 147.5t47 177.5v610h57v-1024h-53l-2 244q-43 -121 -154.5 -192.5t-263.5 -71.5q-168 0 -264 94t-96 270zM330 1192l221 299h66l223 -299h-55l-201 256l-199 -256h-55z" />
<glyph unicode="&#xfc;" horiz-adv-x="1175" d="M166 344v680h57v-668q0 -160 81 -242.5t233 -82.5q129 0 220 58t138 147.5t47 177.5v610h57v-1024h-53l-2 244q-43 -121 -154.5 -192.5t-263.5 -71.5q-168 0 -264 94t-96 270zM334 1278q0 27 16.5 42t43.5 15q26 0 42.5 -15t16.5 -42t-16.5 -43t-42.5 -16q-27 0 -43.5 16 t-16.5 43zM715 1278q0 27 16.5 42t42.5 15q27 0 42.5 -15t15.5 -42t-15.5 -43t-42.5 -16t-43 16t-16 43z" />
<glyph unicode="&#xfd;" horiz-adv-x="1005" d="M0 -371l25 47q45 -68 147 -67q78 0 133 44t103 159l75 186l-434 1026h66l354 -858l43 -103l41 109l346 852h64l-504 -1225q-55 -133 -121 -186t-166 -53q-123 0 -172 69zM481 1194l170 309h64l-184 -309h-50z" />
<glyph unicode="&#xfe;" d="M178 -430v1925h58v-733q43 133 148 207.5t253 74.5q219 0 344 -141t125 -391t-125 -391t-344 -141q-150 0 -255.5 74.5t-145.5 209.5v-694h-58zM236 504q0 -219 106.5 -346t286.5 -127q198 0 309 127t111 354t-111 355t-309 128q-180 0 -286.5 -128t-106.5 -347v-16z" />
<glyph unicode="&#xff;" horiz-adv-x="1005" d="M0 -371l25 47q45 -68 147 -67q78 0 133 44t103 159l75 186l-434 1026h66l354 -858l43 -103l41 109l346 852h64l-504 -1225q-55 -133 -121 -186t-166 -53q-123 0 -172 69zM260 1278q0 27 16.5 42t43.5 15q26 0 42.5 -15t16.5 -42t-16.5 -43t-42.5 -16q-27 0 -43.5 16 t-16.5 43zM641 1278q0 27 16.5 42t42.5 15q27 0 42.5 -15t15.5 -42t-15.5 -43t-42.5 -16t-43 16t-16 43z" />
<glyph unicode="&#x152;" horiz-adv-x="2162" d="M119 676q0 211 71.5 368.5t204.5 242.5t310 85q393 0 505 -344v324h848v-52h-792v-585h639v-51h-639v-613h827v-51h-883v324q-115 -344 -505 -344q-176 0 -309.5 85t-205 242.5t-71.5 368.5zM178 676q0 -197 64.5 -342.5t183.5 -224t279 -78.5q260 0 382.5 159.5 t122.5 485.5t-122.5 485.5t-382.5 159.5q-160 0 -279 -79t-183.5 -224.5t-64.5 -341.5z" />
<glyph unicode="&#x153;" horiz-adv-x="2021" d="M109 512q0 248 129 390t354 142q174 0 290.5 -87t161.5 -246q43 160 156 246.5t281 86.5q205 0 320.5 -142t115.5 -386v-35h-842q6 -213 115.5 -331.5t300.5 -118.5q127 0 225.5 56t143.5 157l47 -25q-53 -113 -163 -176t-253 -63q-172 0 -288 88t-159 247 q-45 -160 -161.5 -247.5t-290.5 -87.5q-225 0 -354 142t-129 390zM168 512q0 -225 113.5 -353t310.5 -128q199 0 311.5 128t112.5 353t-112.5 354t-311.5 129q-197 0 -310.5 -129t-113.5 -354zM1073 535h793q-8 217 -107.5 338.5t-277.5 121.5q-187 0 -294.5 -121.5 t-113.5 -338.5z" />
<glyph unicode="&#x178;" horiz-adv-x="1071" d="M31 1352h67l264 -463l175 -303l436 766h67l-475 -828v-524h-57v524zM285 1606q0 27 16.5 42t43.5 15q26 0 42.5 -15t16.5 -42t-16.5 -43t-42.5 -16q-27 0 -43.5 16t-16.5 43zM666 1606q0 27 16.5 42t42.5 15q27 0 42.5 -15t15.5 -42t-15.5 -43t-42.5 -16t-43 16t-16 43z " />
<glyph unicode="&#x2c6;" horiz-adv-x="1107" d="M299 1192l221 299h66l223 -299h-55l-201 256l-199 -256h-55z" />
<glyph unicode="&#x2dc;" horiz-adv-x="1107" d="M182 1219q16 98 60.5 144t126.5 46q55 0 90 -19.5t73 -56.5q33 -31 62 -47t70 -16q61 0 90.5 33.5t44.5 107.5h49q-17 -96 -61 -143t-123 -47q-55 0 -90 19.5t-74 55.5q-37 33 -64.5 49.5t-68.5 16.5q-61 0 -90 -34t-46 -109h-49z" />
<glyph unicode="&#x2000;" horiz-adv-x="912" />
<glyph unicode="&#x2001;" horiz-adv-x="1825" />
<glyph unicode="&#x2002;" horiz-adv-x="912" />
<glyph unicode="&#x2003;" horiz-adv-x="1825" />
<glyph unicode="&#x2004;" horiz-adv-x="608" />
<glyph unicode="&#x2005;" horiz-adv-x="456" />
<glyph unicode="&#x2006;" horiz-adv-x="304" />
<glyph unicode="&#x2007;" horiz-adv-x="304" />
<glyph unicode="&#x2008;" horiz-adv-x="228" />
<glyph unicode="&#x2009;" horiz-adv-x="365" />
<glyph unicode="&#x200a;" horiz-adv-x="101" />
<glyph unicode="&#x2010;" horiz-adv-x="888" d="M147 520v60h594v-60h-594z" />
<glyph unicode="&#x2011;" horiz-adv-x="888" d="M147 520v60h594v-60h-594z" />
<glyph unicode="&#x2012;" horiz-adv-x="888" d="M147 520v60h594v-60h-594z" />
<glyph unicode="&#x2013;" horiz-adv-x="1267" d="M145 522v56h979v-56h-979z" />
<glyph unicode="&#x2014;" horiz-adv-x="1951" d="M145 522v56h1661v-56h-1661z" />
<glyph unicode="&#x2018;" horiz-adv-x="385" d="M111 1184q0 72 35.5 135t103.5 98l37 -31q-57 -23 -95 -77t-38 -105q0 -10 4 -30l4 -3q12 25 39 25q23 0 40 -17.5t17 -43.5q0 -27 -18.5 -45.5t-44.5 -18.5q-41 0 -62.5 31t-21.5 82z" />
<glyph unicode="&#x2019;" horiz-adv-x="385" d="M109 1098q57 25 95 79t38 105q0 10 -4 31h-5q-10 -23 -38 -23q-23 0 -39.5 17.5t-16.5 44.5q0 25 17.5 43t46.5 18q39 0 60.5 -30.5t21.5 -79.5q0 -72 -36 -135.5t-104 -98.5z" />
<glyph unicode="&#x201a;" horiz-adv-x="393" d="M100 -205q55 23 94 78t39 107q0 10 -4 30h-4q-12 -23 -39 -22q-25 0 -41 17.5t-16 43.5q0 25 18.5 43.5t45.5 18.5q40 0 61.5 -31t21.5 -82q0 -70 -36.5 -133.5t-102.5 -97.5z" />
<glyph unicode="&#x201c;" horiz-adv-x="620" d="M111 1184q0 72 35.5 135t103.5 98l37 -31q-57 -23 -95 -77t-38 -105q0 -10 4 -30l4 -3q12 25 39 25q23 0 40 -17.5t17 -43.5q0 -27 -18.5 -45.5t-44.5 -18.5q-41 0 -62.5 31t-21.5 82zM347 1184q0 72 35.5 135t103.5 98l37 -31q-57 -23 -95 -77t-38 -105q0 -10 4 -30 l4 -3q12 25 39 25q23 0 40 -17.5t17 -43.5q0 -27 -18.5 -45.5t-44.5 -18.5q-41 0 -62.5 31t-21.5 82z" />
<glyph unicode="&#x201d;" horiz-adv-x="618" d="M109 1098q57 25 95 79t38 105q0 10 -4 31h-5q-10 -23 -38 -23q-23 0 -39.5 17.5t-16.5 44.5q0 25 17.5 43t46.5 18q39 0 60.5 -30.5t21.5 -79.5q0 -72 -36 -135.5t-104 -98.5zM345 1098q57 25 95 79t38 105q0 10 -4 31h-5q-10 -23 -38 -23q-23 0 -39.5 17.5t-16.5 44.5 q0 25 17.5 43t46.5 18q39 0 60.5 -30.5t21.5 -79.5q0 -72 -36 -135.5t-104 -98.5z" />
<glyph unicode="&#x201e;" horiz-adv-x="628" d="M100 -205q55 23 94 78t39 107q0 10 -4 30h-4q-12 -23 -39 -22q-25 0 -41 17.5t-16 43.5q0 25 18.5 43.5t45.5 18.5q40 0 61.5 -31t21.5 -82q0 -70 -36.5 -133.5t-102.5 -97.5zM336 -205q55 23 94 78t39 107q0 10 -4 30h-4q-12 -23 -39 -22q-25 0 -41 17.5t-16 43.5 q0 25 18.5 43.5t45.5 18.5q40 0 61.5 -31t21.5 -82q0 -70 -36.5 -133.5t-102.5 -97.5z" />
<glyph unicode="&#x2022;" horiz-adv-x="880" d="M293 694q0 63 42 104.5t105 41.5q64 0 106 -41t42 -105q0 -63 -41 -105t-107 -42q-63 0 -105 42t-42 105z" />
<glyph unicode="&#x2026;" horiz-adv-x="1216" d="M141 49q0 29 17.5 45.5t43.5 16.5q29 0 45.5 -16.5t16.5 -45.5q0 -27 -16.5 -44t-45.5 -17q-27 0 -44 17.5t-17 43.5zM547 49q0 29 17.5 45.5t43.5 16.5q29 0 45.5 -16.5t16.5 -45.5q0 -27 -16.5 -44t-45.5 -17q-27 0 -44 17.5t-17 43.5zM950 49q0 29 17.5 45.5 t43.5 16.5q29 0 45.5 -16.5t16.5 -45.5q0 -27 -16.5 -44t-45.5 -17q-27 0 -44 17.5t-17 43.5z" />
<glyph unicode="&#x202f;" horiz-adv-x="365" />
<glyph unicode="&#x2039;" horiz-adv-x="555" d="M96 543l289 401h68l-291 -401l291 -402h-68z" />
<glyph unicode="&#x203a;" horiz-adv-x="555" d="M102 141l291 402l-291 401h70l287 -401l-287 -402h-70z" />
<glyph unicode="&#x205f;" horiz-adv-x="456" />
<glyph unicode="&#x20ac;" horiz-adv-x="1347" d="M82 496v49h178q-6 61 -6 131q0 66 6 127h-178v49h184q37 248 174.5 384t352.5 136q164 0 275.5 -75.5t160.5 -219.5l-47 -30q-47 135 -145.5 205.5t-241.5 70.5q-190 0 -312.5 -124t-156.5 -347h577l-24 -49h-562q-6 -61 -6 -127q0 -76 8 -131h502l-24 -49h-471 q35 -221 157.5 -343t311.5 -122q139 0 250.5 88t150.5 250l51 -23q-45 -176 -171 -271t-281 -95q-215 0 -352.5 135t-174.5 381h-186z" />
<glyph unicode="&#x2122;" horiz-adv-x="1579" d="M72 1309v43h555v-43h-250v-633h-53v633h-252zM752 676v676h61l250 -576l18 -47l19 47l250 576h61v-676h-53v508l6 90h-2l-16 -49l-242 -549h-47l-240 549l-16 49h-2l6 -90v-508h-53z" />
<glyph unicode="&#x25fc;" horiz-adv-x="1024" d="M0 0v1024h1024v-1024h-1024z" />
</font>
</defs>
</svg>
