<?xml version="1.0" standalone="no"?>
<!DOCTYPE svg PUBLIC "-//W3C//DTD SVG 1.1//EN" "http://www.w3.org/Graphics/SVG/1.1/DTD/svg11.dtd" >
<svg xmlns="http://www.w3.org/2000/svg" xmlns:xlink="http://www.w3.org/1999/xlink" version="1.1">
<metadata></metadata>
<defs>
<font id="work_sansextrabold" horiz-adv-x="1286" >
<font-face units-per-em="2048" ascent="1638" descent="-410" />
<missing-glyph horiz-adv-x="546" />
<glyph unicode="&#xfb01;" horiz-adv-x="1480" d="M16 739v285h152v66q0 201 125 296t317 95q86 0 152.5 -16.5t103.5 -47.5l-32 -248q-41 33 -117 33q-80 0 -121 -31.5t-41 -103.5v-43h299v-285h-272v-739h-414v739h-152zM942 1296q0 98 53 141.5t178 43.5t178.5 -43t53.5 -142q0 -96 -53.5 -139t-178.5 -43t-178 43 t-53 139zM966 0v1024h414v-1024h-414z" />
<glyph unicode="&#xfb02;" horiz-adv-x="1552" d="M16 739v285h152v66q0 201 125 296t317 95q86 0 152.5 -16.5t103.5 -47.5l-32 -248q-41 33 -117 33q-80 0 -121 -31.5t-41 -103.5v-43h299v-285h-272v-739h-414v739h-152zM964 322v1124h414v-1063q0 -66 20.5 -94.5t69.5 -28.5q45 0 88 14l-22 -235q-37 -27 -103.5 -43 t-132.5 -16q-178 0 -256 79.5t-78 262.5z" />
<glyph horiz-adv-x="0" />
<glyph horiz-adv-x="682" />
<glyph unicode=" "  horiz-adv-x="546" />
<glyph unicode="&#x09;" horiz-adv-x="546" />
<glyph unicode="&#xa0;" horiz-adv-x="546" />
<glyph unicode="!" horiz-adv-x="638" d="M98 170q0 88 58.5 136t162.5 48q103 0 161.5 -48t58.5 -136t-58.5 -137t-161.5 -49q-104 0 -162.5 49t-58.5 137zM102 969v383h433v-383l-46 -523h-342z" />
<glyph unicode="&#x22;" horiz-adv-x="948" d="M115 791v589h331l-63 -589h-268zM541 791v589h331l-63 -589h-268z" />
<glyph unicode="#" horiz-adv-x="1445" d="M57 307v240h238l41 260h-191v240h230l49 305h272l-49 -305h238l49 305h272l-49 -305h232v-240h-269l-43 -260h223v-240h-262l-49 -307h-270l49 307h-238l-49 -307h-272l49 307h-201zM567 547h240l41 260h-240z" />
<glyph unicode="$" horiz-adv-x="1323" d="M37 225l180 246q59 -88 159.5 -137t231.5 -60v250q-160 29 -267.5 65t-185 117.5t-77.5 223.5q0 176 139 289.5t391 130.5v174h135v-172q201 -8 323 -66.5t226 -167.5l-188 -229q-68 92 -155 137t-206 53v-264q158 -29 267.5 -66.5t187.5 -122.5t78 -229 q0 -174 -148.5 -279.5t-384.5 -115.5v-174h-135v174q-205 8 -338 63.5t-233 159.5zM453 954q0 -43 38.5 -67.5t116.5 -44.5v229q-76 -10 -115.5 -41t-39.5 -76zM743 276q160 17 160 105q0 45 -41 71.5t-119 45.5v-222z" />
<glyph unicode="%" horiz-adv-x="1980" d="M55 983q0 176 109.5 282.5t292.5 106.5q180 0 289.5 -106.5t109.5 -282.5t-109.5 -282.5t-289.5 -106.5q-182 0 -292 106.5t-110 282.5zM354 0l969 1354h307l-971 -1354h-305zM354 983q0 -57 27 -88t76 -31q47 0 73.5 31t26.5 88t-26.5 88t-73.5 31q-49 0 -76 -31 t-27 -88zM1122 369q0 176 110.5 282.5t291.5 106.5q180 0 290.5 -106.5t110.5 -282.5t-110.5 -282.5t-290.5 -106.5t-291 106.5t-111 282.5zM1421 369q0 -57 27 -88t76 -31t75.5 30.5t26.5 88.5q0 57 -26.5 87.5t-75.5 30.5t-76 -30.5t-27 -87.5z" />
<glyph unicode="&#x26;" horiz-adv-x="1341" d="M35 358q0 102 59.5 197.5t196.5 146.5q-76 90 -102.5 158t-26.5 152q0 94 49 176t149.5 133t245.5 51q147 0 245.5 -47t144.5 -123t46 -166q0 -123 -73.5 -218t-220.5 -150l77 -80l125 -129q37 102 35 225l268 -4q-6 -227 -129 -375q68 -43 140 -43q29 0 61 6l-27 -288 q-127 0 -208.5 22.5t-180.5 93.5q-145 -117 -383 -116q-223 0 -357 96t-134 282zM385 383q0 -63 51 -102t139 -39q68 0 144 20l-84 82l-184 182q-37 -35 -51.5 -67.5t-14.5 -75.5zM510 995q0 -39 20.5 -75.5t77.5 -102.5q68 53 90.5 97t22.5 100q0 47 -28.5 72.5t-76.5 25.5 q-49 0 -77.5 -30.5t-28.5 -86.5z" />
<glyph unicode="'" horiz-adv-x="522" d="M115 791v589h331l-63 -589h-268z" />
<glyph unicode="(" horiz-adv-x="829" d="M141 553q0 324 126 560.5t368 383.5l188 -184q-166 -150 -240.5 -325t-74.5 -435q0 -262 74.5 -437t240.5 -325l-188 -184q-494 303 -494 946z" />
<glyph unicode=")" horiz-adv-x="829" d="M6 -209q168 147 242 323.5t74 438.5t-74 437t-242 323l189 184q493 -299 493 -944t-493 -946z" />
<glyph unicode="*" horiz-adv-x="1216" d="M68 997l90 277l274 -100l55 -33l-14 63l-10 291h289l-11 -291l-14 -63l55 33l277 100l88 -277l-281 -79l-63 -7l49 -43l178 -229l-233 -170l-164 242l-25 59l-26 -59l-164 -242l-234 170l181 229l47 43l-64 7z" />
<glyph unicode="+" horiz-adv-x="1236" d="M98 530v283h361v412h321v-412h359v-283h-359v-413h-321v413h-361z" />
<glyph unicode="," horiz-adv-x="612" d="M59 -215q104 43 174 97.5t99 125.5l-8 8q-27 -27 -66 -26q-76 0 -133 49t-57 139q0 104 61 157.5t168 53.5q121 0 183.5 -80t62.5 -205q0 -143 -79 -258.5t-228 -177.5z" />
<glyph unicode="-" horiz-adv-x="1093" d="M160 391v324h776v-324h-776z" />
<glyph unicode="." horiz-adv-x="612" d="M76 186q0 94 60.5 148.5t168.5 54.5q109 0 169.5 -53t60.5 -150q0 -96 -60.5 -149t-169.5 -53t-169 53t-60 149z" />
<glyph unicode="/" horiz-adv-x="980" d="M20 -143l555 1589h383l-555 -1589h-383z" />
<glyph unicode="0" horiz-adv-x="1333" d="M84 676q0 348 144.5 522t439.5 174q293 0 437 -174t144 -522t-144 -522t-437 -174q-295 0 -439.5 174t-144.5 522zM496 676q0 -143 16 -224t53 -117t103 -36q63 0 100 36t53.5 116.5t16.5 224.5q0 143 -16.5 224t-53.5 117t-100 36q-66 0 -103 -36t-53 -117t-16 -224z " />
<glyph unicode="1" horiz-adv-x="921" d="M47 1130q115 12 240 80t174 142h327v-1352h-401v952q-154 -137 -309 -161z" />
<glyph unicode="2" horiz-adv-x="1230" d="M68 891q0 156 71.5 264.5t196.5 162.5t285 54q182 0 300.5 -65.5t174 -166t55.5 -206.5q0 -188 -141.5 -340t-405.5 -291v-4q127 10 299 10h260v-309h-1050v258q317 182 470.5 345t153.5 298q0 68 -36.5 110t-106.5 42q-168 0 -168 -258z" />
<glyph unicode="3" horiz-adv-x="1222" d="M49 319l377 158q2 -100 47 -142t121 -42q70 0 110.5 32.5t40.5 96.5q0 63 -38.5 94t-122.5 31h-84v248h63q80 0 117 31.5t39 99.5q0 63 -35 98t-94 35q-147 0 -154 -176l-362 116q51 373 544 373q240 0 371 -102.5t131 -286.5q0 -109 -47 -176.5t-107.5 -96t-99.5 -28.5 v-8q49 0 113.5 -23.5t116 -92.5t51.5 -187q0 -117 -70.5 -206t-194.5 -137t-278 -48q-233 0 -367.5 79.5t-187.5 259.5z" />
<glyph unicode="4" horiz-adv-x="1349" d="M59 276v183l566 893h487v-799h193v-277h-193v-276h-364v276h-689zM442 553h306v309l6 223h-4q-37 -102 -111 -221z" />
<glyph unicode="5" horiz-adv-x="1193" d="M37 236l362 208q14 -82 56.5 -120.5t134.5 -38.5q82 0 128 38.5t46 116.5q0 76 -43 118t-133 42q-123 0 -185 -63l-311 53l90 762h873v-314h-576l-24 -192l-13 -62h2q37 43 109 66.5t160 23.5q196 0 309 -111.5t113 -289.5q0 -166 -75 -277.5t-199 -163.5t-275 -52 q-186 0 -320.5 57t-228.5 199z" />
<glyph unicode="6" horiz-adv-x="1261" d="M88 676q0 350 168 523t449 173q176 0 305 -72.5t178 -232.5l-336 -158q-35 139 -174 140q-98 0 -159.5 -87.5t-61.5 -246.5v-31h4q74 152 311 152q123 0 221.5 -51.5t154.5 -145.5t56 -217q0 -205 -142 -323.5t-398 -118.5q-281 0 -428.5 173t-147.5 523zM518 426 q0 -70 41 -107.5t115 -37.5q76 0 116.5 37.5t40.5 107.5t-40.5 107.5t-116.5 37.5q-74 0 -115 -38.5t-41 -106.5z" />
<glyph unicode="7" horiz-adv-x="1296" d="M86 1032v320h1157v-285q-240 -225 -335 -484t-95 -583h-412q0 303 103.5 553t333.5 479h-752z" />
<glyph unicode="8" horiz-adv-x="1292" d="M76 356q0 123 66.5 205t193.5 121v2q-109 39 -166 114.5t-57 180.5q0 180 141 283.5t391 103.5t392.5 -103.5t142.5 -283.5q0 -104 -57.5 -180t-166.5 -115v-2q127 -39 194 -121t67 -205q0 -174 -152 -275t-420 -101q-266 0 -417.5 101t-151.5 275zM477 412 q0 -66 44 -103t124 -37q82 0 125 37t43 103t-44 102.5t-124 36.5q-78 0 -123 -37t-45 -102zM496 942q0 -63 39.5 -99t109.5 -36t111 36t41 99t-40 98t-112 35q-70 0 -109.5 -34.5t-39.5 -98.5z" />
<glyph unicode="9" horiz-adv-x="1253" d="M61 907q0 219 143.5 342t405.5 123q279 0 426.5 -176t147.5 -530q0 -686 -592 -686q-190 0 -317.5 69.5t-190.5 220.5l371 140q12 -61 46 -92t99 -31q100 0 153.5 76.5t53.5 228.5v39h-8q-25 -70 -109 -111t-194 -41q-115 0 -215.5 53.5t-160 150.5t-59.5 224zM440 909 q0 -70 40 -107.5t116 -37.5t117 38t41 107q0 68 -41 107t-117 39t-116 -38t-40 -108z" />
<glyph unicode=":" horiz-adv-x="622" d="M82 186q0 94 60.5 148.5t168.5 54.5q109 0 169.5 -53t60.5 -150q0 -96 -60.5 -149t-169.5 -53t-169 53t-60 149zM82 841q0 94 60.5 148.5t168.5 54.5q109 0 169.5 -53t60.5 -150q0 -96 -60.5 -149t-169.5 -53t-169 53t-60 149z" />
<glyph unicode=";" horiz-adv-x="622" d="M66 -215q104 43 173.5 97.5t98.5 125.5l-8 8q-27 -27 -66 -26q-76 0 -133 49t-57 139q0 104 61.5 157.5t167.5 53.5q121 0 183.5 -80t62.5 -205q0 -143 -79 -258.5t-228 -177.5zM80 842q0 96 61.5 149t169.5 53q109 0 169.5 -54t60.5 -148q0 -96 -60.5 -149.5 t-169.5 -53.5q-108 0 -169.5 53t-61.5 150z" />
<glyph unicode="&#x3c;" horiz-adv-x="1236" d="M123 434v342l1014 441v-388l-713 -225l713 -223v-387z" />
<glyph unicode="=" horiz-adv-x="1236" d="M133 295v270h971v-270h-971zM133 750v270h971v-270h-971z" />
<glyph unicode="&#x3e;" horiz-adv-x="1236" d="M100 -6v387l711 225l-711 223v388l1014 -441v-342z" />
<glyph unicode="?" horiz-adv-x="1292" d="M61 1008q18 166 162 265t432 99q258 0 406.5 -92t148.5 -287q0 -350 -391 -389l-28 -162h-342l-27 314q182 10 261 54t79 118q0 117 -133 116q-74 0 -117 -45t-47 -135zM401 170q0 88 58.5 137t163.5 49q104 0 161.5 -49t57.5 -137t-57.5 -137t-161.5 -49t-163 49 t-59 137z" />
<glyph unicode="@" horiz-adv-x="1908" d="M88 457q0 266 118 469.5t324.5 314.5t468.5 111q244 0 428.5 -94.5t287 -278.5t102.5 -447q0 -182 -63.5 -300.5t-165 -173t-218.5 -54.5q-106 0 -184 43t-119 127q-106 -168 -297 -168q-152 0 -239 105.5t-87 271.5q0 188 62.5 317t169 193.5t242.5 64.5q90 0 139 -47 t61 -104l43 129h301l-94 -567q-6 -37 -6 -66q0 -53 23.5 -77.5t78.5 -24.5q80 0 131.5 86t51.5 245q0 324 -173.5 489t-474.5 165q-213 0 -376.5 -87t-255 -252t-91.5 -390q0 -211 89.5 -360.5t236 -225.5t316.5 -76q154 0 242.5 26.5t160.5 82.5l92 -131 q-100 -72 -209.5 -107t-294.5 -35q-236 0 -422 97.5t-292.5 284t-106.5 444.5zM797 436q0 -74 26.5 -112.5t75.5 -38.5q43 0 76 26.5t41 75.5l26 188q2 12 2 35q0 43 -18 64.5t-61 21.5q-68 0 -118 -71.5t-50 -188.5z" />
<glyph unicode="A" horiz-adv-x="1400" d="M-6 0l455 1352h501l457 -1352h-430l-76 281h-412l-77 -281h-418zM563 551h266l-73 268l-58 221h-4l-55 -219z" />
<glyph unicode="B" horiz-adv-x="1421" d="M125 0v1352h719q497 -2 497 -362q0 -124 -73.5 -206t-216.5 -102v-2q162 -20 243.5 -104t81.5 -216q0 -178 -123 -269t-366 -91h-762zM526 283h265q157 0 157 121.5t-154 121.5h-3h-265v-243zM526 815h230q157 0 157 119q0 123 -157 123h-230v-242z" />
<glyph unicode="C" horiz-adv-x="1390" d="M74 676q0 217 82 373.5t233.5 239.5t360.5 83q229 0 391 -97t207 -294l-363 -145q-23 125 -74 171t-149 46q-125 0 -191.5 -94.5t-66.5 -282.5q0 -377 254 -377q102 0 156.5 48t72.5 155l373 -101q-55 -217 -214 -319t-394 -102q-209 0 -361.5 81.5t-234.5 239.5t-82 375 z" />
<glyph unicode="D" horiz-adv-x="1468" d="M125 0v1352h620q316 0 483 -175.5t167 -500.5q0 -326 -167 -501t-483 -175h-620zM543 305h151q148 0 209.5 89t61.5 282t-61.5 282t-209.5 89h-151v-742z" />
<glyph unicode="E" d="M125 0v1352h1089v-314h-671v-219h536v-291h-536v-215h698v-313h-1116z" />
<glyph unicode="F" horiz-adv-x="1255" d="M125 0v1352h1087v-314h-669v-235h536v-314h-536v-489h-418z" />
<glyph unicode="G" horiz-adv-x="1478" d="M74 672q0 219 83 376.5t237.5 240.5t367.5 83q242 0 387 -84t227 -274l-389 -146q-39 184 -211 185q-272 0 -272 -377q0 -201 69.5 -293t214.5 -92q106 0 170 45t64 133v10h-279v269h631v-748h-282l-15 156q-109 -176 -375 -176q-180 0 -322 79.5t-224 235.5t-82 377z " />
<glyph unicode="H" horiz-adv-x="1525" d="M125 0v1352h418v-514h438v514h420v-1352h-420v524h-438v-524h-418z" />
<glyph unicode="I" horiz-adv-x="667" d="M125 0v1352h418v-1352h-418z" />
<glyph unicode="J" horiz-adv-x="1310" d="M53 434q0 66 13 133l417 70q-10 -86 -10 -135q0 -109 38 -156t118 -47q88 0 127 65.5t39 210.5v777h419v-813q0 -266 -159.5 -412.5t-450.5 -146.5q-274 0 -412.5 121.5t-138.5 332.5z" />
<glyph unicode="K" horiz-adv-x="1445" d="M125 0v1352h418v-551l413 551h453l-432 -543l465 -809h-473l-289 541l-137 -176v-365h-418z" />
<glyph unicode="L" horiz-adv-x="1236" d="M125 0v1352h418v-1039h643v-313h-1061z" />
<glyph unicode="M" horiz-adv-x="1904" d="M125 0v1352h590l182 -641l68 -269h4l67 269l183 641h563v-1352h-369v541l8 436h-4l-297 -977h-336l-292 977h-7l9 -436v-541h-369z" />
<glyph unicode="N" horiz-adv-x="1523" d="M125 0v1352h457l368 -670l88 -184h2l-8 268v586h367v-1352h-459l-369 670l-86 184h-4l8 -268v-586h-364z" />
<glyph unicode="O" horiz-adv-x="1501" d="M74 676q0 217 82 374.5t234.5 239.5t361.5 82q317 0 495 -183t178 -513t-178 -513t-495 -183q-209 0 -361.5 81.5t-234.5 239.5t-82 375zM504 676q0 -190 61.5 -283.5t186.5 -93.5t185 92t60 285t-60 285t-185 92t-186.5 -93.5t-61.5 -283.5z" />
<glyph unicode="P" horiz-adv-x="1409" d="M125 0v1352h672q268 0 407 -117t139 -344q0 -215 -140 -328.5t-406 -113.5h-254v-449h-418zM543 743h186q100 0 147.5 37t47.5 115t-47.5 115t-147.5 37h-186v-304z" />
<glyph unicode="Q" horiz-adv-x="1501" d="M74 676q0 217 82 374.5t234.5 239.5t361.5 82q317 0 495 -183t178 -513q0 -295 -145 -474t-406 -214q8 -53 54.5 -76t132.5 -23q166 0 256 80l96 -293q-117 -100 -366 -100q-213 0 -323 96.5t-110 253.5q0 20 4 62q-258 39 -401 218t-143 470zM504 676q0 -191 61.5 -284 t186.5 -93t185 92t60 285t-60 285t-185 92t-186.5 -93.5t-61.5 -283.5z" />
<glyph unicode="R" horiz-adv-x="1429" d="M125 0v1352h692q258 0 393.5 -113t135.5 -330q0 -295 -252 -395l329 -514h-456l-262 469h-170v-469h-410zM535 754h202q102 0 145.5 33.5t43.5 111.5t-44 113t-145 35h-202v-293z" />
<glyph unicode="S" horiz-adv-x="1320" d="M37 188l194 287q82 -96 183.5 -138t238.5 -42q186 0 187 90q0 39 -54.5 61.5t-175.5 45.5q-164 31 -275.5 73.5t-185 127.5t-73.5 227q0 133 71.5 235t209 159.5t327.5 57.5q195 0 335 -52t269 -177l-205 -264q-82 94 -175 136t-214 42q-88 0 -137 -29t-49 -76 q0 -37 51 -57.5t170 -42.5q197 -35 314.5 -91t172 -142.5t54.5 -212.5q0 -135 -78 -231.5t-211 -145.5t-301 -49q-233 0 -376.5 50t-266.5 158z" />
<glyph unicode="T" horiz-adv-x="1374" d="M45 1038v314h1282v-314h-430v-1038h-418v1038h-434z" />
<glyph unicode="U" horiz-adv-x="1454" d="M96 567v785h422v-807q0 -246 209 -246q211 0 211 246v807h420v-785q0 -587 -629 -587h-2q-631 0 -631 587z" />
<glyph unicode="V" horiz-adv-x="1425" d="M-2 1352h436l217 -777l70 -264l65 260l220 781h421l-466 -1352h-496z" />
<glyph unicode="W" horiz-adv-x="2068" d="M0 1352h451l190 -1022l213 1022h369l223 -1018l186 1018h434l-387 -1352h-450l-131 578l-56 337h-6l-55 -337l-131 -578h-463z" />
<glyph unicode="X" horiz-adv-x="1402" d="M12 0l455 676l-432 676h493l193 -385l194 385h455l-430 -666l465 -686h-504l-213 395l-201 -395h-475z" />
<glyph unicode="Y" horiz-adv-x="1406" d="M18 1352h424l164 -338l101 -236l98 236l166 338h415l-473 -873v-479h-419v479z" />
<glyph unicode="Z" horiz-adv-x="1302" d="M63 0v293l719 754h-708v305h1159v-293l-717 -754h739v-305h-1192z" />
<glyph unicode="[" horiz-adv-x="833" d="M174 -344v1790h610v-277h-258v-1235h258v-278h-610z" />
<glyph unicode="\" horiz-adv-x="980" d="M20 1446h386l555 -1589h-386z" />
<glyph unicode="]" horiz-adv-x="833" d="M47 -66h258v1235h-258v277h612v-1790h-612v278z" />
<glyph unicode="^" horiz-adv-x="1292" d="M49 727l424 752h344l426 -752h-358l-240 494l-239 -494h-357z" />
<glyph unicode="_" horiz-adv-x="1103" d="M0 -113h1104v-319h-1104v319z" />
<glyph unicode="`" horiz-adv-x="1024" d="M162 1503h375l129 -358h-295z" />
<glyph unicode="a" horiz-adv-x="1198" d="M47 229q0 129 92 209t307 123l218 45v39q0 59 -31 92t-86 33q-61 0 -100 -31.5t-48 -109.5l-340 71q23 164 149 254t353 90q512 0 512 -407v-328q0 -82 72 -82q34 1 57 9l-33 -220q-66 -36 -141 -36h-4q-117 0 -193.5 41.5t-101.5 123.5q-45 -78 -136 -121.5t-228 -43.5 q-156 0 -237 64.5t-81 184.5zM444 301q0 -39 24 -59.5t62 -20.5q54 0 94 32t40 89v94l-113 -28q-106 -27 -107 -107z" />
<glyph unicode="b" d="M100 0v1446h414v-594q41 90 117 141t182 51q193 0 299.5 -141t106.5 -395q0 -252 -105.5 -390t-298.5 -138q-123 0 -211 66.5t-129 180.5l-12 -227h-363zM514 489q6 -215 141 -215q72 0 110 55.5t38 182.5t-37 181.5t-111 54.5q-135 0 -141 -213v-46z" />
<glyph unicode="c" horiz-adv-x="1175" d="M57 512q0 254 145.5 393t407.5 139q260 0 382 -95t138 -238l-382 -117q-6 166 -117 166q-82 0 -120 -58.5t-38 -193.5t40 -189.5t116 -54.5q111 0 129 150l370 -117q-6 -88 -66.5 -161t-170 -114.5t-260.5 -41.5q-279 0 -426.5 138t-147.5 394z" />
<glyph unicode="d" d="M66 508q0 254 107.5 395t299.5 141q106 0 181 -51t116 -143v596h414v-1446h-371l-14 199q-45 -100 -129 -159.5t-199 -59.5q-193 0 -299 139t-106 389zM483 512q0 -127 37 -182.5t109 -55.5q141 1 141 230v16q0 227 -141 228q-72 0 -109 -54.5t-37 -181.5z" />
<glyph unicode="e" horiz-adv-x="1193" d="M57 512q0 254 144.5 393t406.5 139q256 0 393.5 -136t137.5 -371q-1 -74 -11 -119h-673q12 -86 55 -121t121 -35q125 0 153 98l334 -96q-39 -139 -169 -211.5t-318 -72.5q-279 0 -426.5 138t-147.5 394zM455 598h297q-10 84 -44 125t-98 41q-67 0 -105 -39t-50 -127z" />
<glyph unicode="f" horiz-adv-x="866" d="M16 739v285h152v66q0 201 125 296t317 95q86 0 152.5 -16.5t103.5 -47.5l-32 -248q-41 33 -117 33q-80 0 -121 -31.5t-41 -103.5v-43h299v-285h-272v-739h-414v739h-152z" />
<glyph unicode="g" horiz-adv-x="1173" d="M78 -93q47 50 149 73q-168 68 -168 223q0 72 46.5 127t123.5 86q-170 86 -170 278q0 172 135.5 261t393.5 89q109 0 203 -16q16 129 88.5 216t205.5 87q27 0 41 -2l39 -264q-37 6 -67 6q-61 0 -105.5 -24.5t-64.5 -61.5q188 -88 188 -291q0 -170 -135 -258t-393 -88 q-121 0 -215 19q-43 -12 -43 -50q0 -57 96 -57h352q193 0 294.5 -82t101.5 -246q0 -184 -158 -278t-443 -94q-542 0 -542 228q0 69 47 119zM336 -115q0 -35 62.5 -51t201.5 -16h7q249 0 249 73q0 47 -98 48h-283q-78 0 -108.5 -12.5t-30.5 -41.5zM471 696q0 -57 32 -91 t85 -34t85 34t32 91t-32 91t-85 34t-85 -33.5t-32 -91.5z" />
<glyph unicode="h" horiz-adv-x="1269" d="M100 0v1446h414v-621q45 109 127 164t195 55q157 0 246 -92t89 -260v-692h-413v582q0 84 -26.5 118.5t-78.5 34.5q-63 0 -101 -49t-38 -147v-539h-414z" />
<glyph unicode="i" horiz-adv-x="614" d="M76 1296q0 98 53 141.5t178 43.5t178.5 -43t53.5 -142q0 -96 -53.5 -139t-178.5 -43t-178 43t-53 139zM100 0v1024h414v-1024h-414z" />
<glyph unicode="j" horiz-adv-x="612" d="M-203 -377l53 252q18 -16 50 -25.5t65 -9.5q68 0 101.5 37t33.5 119v1028h414v-1065q0 -211 -104.5 -305t-321.5 -94q-178 0 -291 63zM76 1296q0 98 53 141.5t176 43.5q125 0 179.5 -43t54.5 -142q0 -96 -54.5 -139t-179.5 -43q-123 0 -176 43t-53 139z" />
<glyph unicode="k" horiz-adv-x="1312" d="M100 0v1446h414v-817l342 395h451l-371 -401l393 -623h-455l-212 387l-148 -172v-215h-414z" />
<glyph unicode="l" horiz-adv-x="684" d="M98 322v1124h414v-1063q0 -66 20.5 -94.5t69.5 -28.5q45 0 88 14l-22 -235q-37 -27 -103.5 -43t-132.5 -16q-178 0 -256 79.5t-78 262.5z" />
<glyph unicode="m" horiz-adv-x="1918" d="M100 0v1024h373l10 -211q47 113 136.5 172t214.5 59q117 0 197.5 -53t115.5 -153q47 100 135 153t205 53q153 0 243.5 -92t90.5 -260v-692h-414v590q0 78 -25.5 111.5t-76.5 33.5q-66 0 -102 -49t-36 -145v-541h-413v590q0 78 -26 111.5t-77 33.5q-63 0 -100 -49 t-37 -147v-539h-414z" />
<glyph unicode="n" horiz-adv-x="1269" d="M100 0v1024h373l10 -211q45 113 135.5 172t217.5 59q157 0 246 -92t89 -260v-692h-413v582q0 84 -26.5 118.5t-78.5 34.5q-66 0 -102.5 -48t-36.5 -148v-539h-414z" />
<glyph unicode="o" horiz-adv-x="1228" d="M57 512q0 252 146.5 392t410.5 140q265 0 411 -140t146 -392t-146 -392t-411 -140q-264 0 -410.5 140t-146.5 392zM473 512q0 -139 32 -193.5t109 -54.5q78 0 110 54.5t32 193.5t-32 193.5t-110 54.5q-77 0 -109 -54.5t-32 -193.5z" />
<glyph unicode="p" d="M100 -430v1454h363l12 -227q41 115 129 181t211 66q193 0 298.5 -138t105.5 -390q0 -254 -106.5 -395t-299.5 -141q-106 0 -182 51t-117 141v-602h-414zM514 489q6 -213 141 -213q74 0 111 54.5t37 181.5t-38 182.5t-110 55.5q-135 0 -141 -215v-46z" />
<glyph unicode="q" d="M66 516q0 250 106.5 389t298.5 139q123 0 210 -66.5t130 -180.5l10 227h365v-1454h-414v604q-41 -92 -116.5 -143t-182.5 -51q-193 0 -300 141t-107 395zM483 512q0 -127 37 -181.5t111 -54.5q133 0 141 197v78q-6 100 -43 149.5t-98 49.5q-72 0 -110 -55.5t-38 -182.5z " />
<glyph unicode="r" horiz-adv-x="894" d="M100 0v1024h371l12 -240q37 125 113 192.5t192 67.5h5q68 0 104 -24l-39 -342q-18 14 -53 22.5t-76 8.5q-96 0 -155.5 -52.5t-59.5 -152.5v-504h-414z" />
<glyph unicode="s" horiz-adv-x="1095" d="M29 145l194 226q53 -63 131 -97t172 -34q53 0 86 12t33 37q0 23 -37 40t-131 38q-225 43 -324.5 122.5t-99.5 206.5q0 88 58.5 168t176.5 130t292 50q334 0 481 -170l-187 -202q-95 112 -275 112h-3q-63 0 -96 -15t-33 -40q0 -20 36 -35.5t120 -29.5q231 -35 334.5 -114 t103.5 -218q0 -154 -129 -253t-381 -99q-182 0 -310 38.5t-212 126.5z" />
<glyph unicode="t" horiz-adv-x="901" d="M14 739v285h166v223l414 115v-338h280v-285h-280v-346q0 -72 31.5 -102.5t97.5 -30.5q78 0 137 35l27 -242q-49 -33 -133 -53t-164 -20q-205 0 -307.5 81.5t-102.5 266.5v411h-166z" />
<glyph unicode="u" horiz-adv-x="1269" d="M96 336v688h414v-586q0 -82 25.5 -115.5t80.5 -33.5q66 0 103 49t37 147v539h413v-1024h-372l-11 203q-92 -223 -350 -223q-340 0 -340 356z" />
<glyph unicode="v" horiz-adv-x="1177" d="M-12 1024h432l170 -768l172 768h428l-348 -1024h-506z" />
<glyph unicode="w" horiz-adv-x="1896" d="M0 1024h430l141 -739l174 739h406l174 -739l141 739h430l-292 -1024h-506l-152 582l-147 -582h-506z" />
<glyph unicode="x" horiz-adv-x="1247" d="M-8 0l362 520l-350 504h461l162 -319l166 319h452l-350 -510l358 -514h-460l-175 336l-172 -336h-454z" />
<glyph unicode="y" horiz-adv-x="1193" d="M-2 -369l80 267q33 -23 72.5 -33t107.5 -10q63 0 98 16t52 59l14 39l-125 291l-299 764h455l122 -555l43 -227l50 233l129 549h407l-334 -963q-63 -186 -139 -294.5t-180.5 -157.5t-253.5 -49q-184 0 -299 71z" />
<glyph unicode="z" horiz-adv-x="1040" d="M59 0v244l359 403l102 101l-155 -5h-306v281h920v-244l-356 -399l-105 -105l174 5h305v-281h-938z" />
<glyph unicode="{" horiz-adv-x="911" d="M94 424v254q125 0 177.5 49t52.5 164v225q0 141 54 224t172 120t318 37l4 -254q-119 0 -172 -44t-53 -142v-260q0 -96 -48 -155.5t-142 -90.5q94 -31 142 -89.5t48 -156.5v-258q0 -100 53.5 -144t171.5 -44l-4 -252q-201 0 -318.5 35.5t-171.5 118.5t-54 227v223 q0 115 -52.5 164t-177.5 49z" />
<glyph unicode="|" horiz-adv-x="712" d="M174 -344v1790h365v-1790h-365z" />
<glyph unicode="}" horiz-adv-x="911" d="M37 -141q119 0 173 44t54 144v258q0 98 47 156.5t142 89.5q-94 31 -141.5 90t-47.5 156v260q0 98 -54 142t-173 44l6 254q201 0 318.5 -37t172 -120t54.5 -224v-225q0 -115 52 -164t177 -49v-254q-125 0 -177 -49t-52 -164v-223q0 -143 -54.5 -226.5t-172 -119 t-318.5 -35.5z" />
<glyph unicode="~" horiz-adv-x="1263" d="M88 483q10 211 98 320.5t254 109.5q76 0 126 -20.5t108 -56.5q33 -23 55.5 -34t46.5 -11q39 0 59.5 25.5t28.5 82.5h312q-9 -211 -97 -320.5t-254 -109.5q-76 0 -126 20.5t-107 57.5q-35 23 -57.5 34t-47.5 11q-39 0 -59 -25.5t-29 -83.5h-311z" />
<glyph unicode="&#xa1;" horiz-adv-x="634" d="M98 854q0 88 58.5 137t162.5 49q102 0 161 -49t59 -137t-58.5 -136t-161.5 -48q-104 0 -162.5 48t-58.5 136zM102 55l45 523h342l46 -523v-383h-433v383z" />
<glyph unicode="&#xa2;" horiz-adv-x="1183" d="M74 512q0 240 131 378t368 152v187h121v-187q227 -12 334 -103t113 -228l-299 -103q-8 76 -47 122t-101 61v-560q131 25 154 170l293 -102q-2 -137 -119 -223t-328 -94v-187h-121v187q-244 18 -371.5 155t-127.5 375zM432 508q0 -129 36 -192.5t105 -79.5v552 q-74 -16 -107.5 -82.5t-33.5 -197.5z" />
<glyph unicode="&#xa3;" horiz-adv-x="1275" d="M59 174q0 94 76 144.5t189 50.5q66 0 118 -7q-6 82 -36 148h-322v225h170q-45 68 -62.5 124t-17.5 118q0 106 56.5 196.5t170 144.5t277.5 54q438 0 512 -373l-332 -149q-29 131 -72 182t-116 51q-63 0 -101.5 -32.5t-38.5 -89.5q0 -37 18.5 -80t61.5 -107q20 -31 25 -39 h403v-225h-315q4 -49 4 -72q0 -78 -22 -155q43 -14 77.5 -22.5t75.5 -8.5q133 0 121 158l238 -33q12 -45 12 -94q0 -127 -78 -215t-215 -88q-98 0 -173 32.5t-161 91.5q-115 -125 -289 -124q-111 0 -182.5 51t-71.5 143zM240 176q0 -27 20.5 -42t56.5 -15q45 0 72 21.5 t41 68.5q-55 23 -111 22q-80 0 -79 -55z" />
<glyph unicode="&#xa4;" horiz-adv-x="1310" d="M49 305l207 178q-39 88 -39 193q0 102 39 190l-207 178l236 234l184 -213q86 35 188 35q98 0 185 -35l182 213l236 -234l-205 -178q39 -90 39 -190q0 -107 -41 -195l207 -176l-236 -235l-184 213q-86 -33 -183 -33q-102 0 -188 35l-184 -215zM518 676q0 -66 38 -105 t101 -39q62 0 99 39t37 105q0 63 -37 102t-99 39q-63 0 -101 -39t-38 -102z" />
<glyph unicode="&#xa5;" horiz-adv-x="1431" d="M29 1352h422l178 -396l86 -211h4l86 213l178 394h420l-461 -729l135 8h234v-123h-393v-129h393v-119h-393v-260h-404v260h-393v119h393v129h-393v123h233l135 -8z" />
<glyph unicode="&#xa6;" horiz-adv-x="571" d="M102 -344v790h367v-790h-367zM102 657v789h367v-789h-367z" />
<glyph unicode="&#xa7;" horiz-adv-x="1292" d="M43 551q0 190 143 303q-25 59 -24 131q0 176 133 281.5t362 105.5q182 0 292 -46t196 -146l-199 -191q-55 68 -118.5 97.5t-168.5 29.5q-98 0 -150 -26.5t-52 -67.5q0 -39 54 -61.5t196 -36.5q283 -25 413.5 -111t130.5 -240q0 -194 -145 -305q25 -55 24 -129 q0 -174 -130 -269t-361 -95q-182 0 -292.5 46t-199.5 146l201 191q53 -68 117.5 -97.5t169.5 -29.5q102 0 152.5 16t50.5 53q0 41 -55.5 64.5t-196.5 36.5q-283 23 -413 108.5t-130 241.5zM322 614q0 -45 59 -70.5t211 -39.5q205 -20 326 -70q55 31 55 76t-59.5 70.5 t-211.5 40.5q-207 18 -327 69q-53 -31 -53 -76z" />
<glyph unicode="&#xa8;" horiz-adv-x="1024" d="M84 1292q0 82 51 128t141 46q95 0 146 -46t51 -128q0 -84 -51 -129t-146 -45q-90 0 -141 46t-51 128zM553 1292q0 82 51 128t141 46q95 0 146 -46t51 -128q0 -84 -51 -129t-146 -45q-90 0 -141 46t-51 128z" />
<glyph unicode="&#xa9;" horiz-adv-x="1546" d="M66 676q0 209 88 366.5t247.5 243.5t370.5 86t372 -86t249 -243.5t88 -366.5t-88 -366.5t-249 -243.5t-372 -86t-370.5 86t-247.5 243.5t-88 366.5zM262 676q0 -154 62.5 -269.5t178 -179t269.5 -63.5t269.5 63.5t179 179t63.5 269.5t-63.5 269.5t-179 179t-269.5 63.5 t-269.5 -63.5t-178 -179.5t-62.5 -269zM395 676q0 180 99.5 287.5t263.5 107.5q311 1 385 -237l-223 -111q-20 39 -49 54.5t-85 15.5q-111 0 -110 -117q0 -119 112 -119q57 0 87 15.5t49 60.5l213 -109q-53 -135 -135 -190t-244 -55q-164 0 -263.5 108.5t-99.5 288.5z" />
<glyph unicode="&#xaa;" horiz-adv-x="937" d="M51 782q0 92 65.5 146.5t217.5 85.5l153 33v26q0 39 -21.5 61.5t-59.5 22.5q-88 0 -99 -98l-248 47q14 119 105.5 183.5t257.5 64.5q186 0 275 -72t89 -219v-215q0 -31 14.5 -46.5t39.5 -15.5q27 0 39 7l-23 -154q-47 -27 -125 -27q-76 0 -126 30t-66 87 q-35 -55 -101.5 -86t-161.5 -31q-225 0 -225 170zM76 272v207h780v-207h-780zM336 836q0 -55 63 -56q37 0 62.5 21.5t25.5 62.5v72l-67 -18q-84 -23 -84 -82z" />
<glyph unicode="&#xab;" horiz-adv-x="1265" d="M59 543l256 401h347l-242 -401l242 -402h-347zM604 543l256 401h347l-242 -401l242 -402h-347z" />
<glyph unicode="&#xac;" horiz-adv-x="1236" d="M123 530v283h991v-639h-321v356h-670z" />
<glyph unicode="&#xad;" horiz-adv-x="1093" d="M160 391v324h776v-324h-776z" />
<glyph unicode="&#xae;" horiz-adv-x="1546" d="M66 676q0 209 88 366.5t247.5 243.5t370.5 86t372 -86t249 -243.5t88 -366.5t-88 -366.5t-249 -243.5t-372 -86t-370.5 86t-247.5 243.5t-88 366.5zM262 676q0 -154 62.5 -269.5t178 -179t269.5 -63.5t269.5 63.5t179 179t63.5 269.5t-63.5 269.5t-179 179t-269.5 63.5 t-269.5 -63.5t-178 -179.5t-62.5 -269zM471 315v742h375q111 0 186.5 -69.5t75.5 -176.5q0 -82 -40 -139.5t-114 -85.5l172 -271h-282l-115 248h-27v-248h-231zM702 721h80q88 0 88 70q0 72 -88 71h-80v-141z" />
<glyph unicode="&#xaf;" horiz-adv-x="1024" d="M123 1145v244h778v-244h-778z" />
<glyph unicode="&#xb0;" horiz-adv-x="1040" d="M82 977q0 182 117.5 288.5t320.5 106.5t320.5 -106.5t117.5 -288.5q0 -184 -117.5 -290.5t-320.5 -106.5t-320.5 106.5t-117.5 290.5zM375 977q0 -63 41 -103t104 -40q64 0 105 39.5t41 103.5q0 63 -40 102t-106 39t-105.5 -39t-39.5 -102z" />
<glyph unicode="&#xb1;" horiz-adv-x="1236" d="M98 2v262h1041v-262h-1041zM98 737v273h377v333h289v-333h375v-273h-375v-336h-289v336h-377z" />
<glyph unicode="&#xb2;" horiz-adv-x="823" d="M23 1212q2 141 102 217t274 76q193 0 284 -78.5t91 -189.5q0 -143 -164 -250q-68 -47 -176 -82v-4q98 8 209 8h139v-227h-731v180q90 41 180 96q236 143 236 254q0 33 -18.5 52.5t-55.5 19.5q-92 0 -86 -143z" />
<glyph unicode="&#xb3;" horiz-adv-x="790" d="M8 881l271 96q0 -102 100 -103q39 0 60.5 19.5t21.5 52.5q0 31 -19.5 45.5t-62.5 14.5h-45v143h37q78 0 78 70q0 68 -72 67q-84 0 -92 -98l-260 82q18 121 116.5 178t247.5 57q166 0 254 -60.5t88 -174.5q0 -78 -46 -125t-128 -53v-9q94 0 142.5 -43t48.5 -125 q0 -113 -91.5 -179t-250.5 -66q-164 0 -261.5 49t-136.5 162z" />
<glyph unicode="&#xb4;" horiz-adv-x="1024" d="M358 1145l129 358h375l-209 -358h-295z" />
<glyph unicode="&#xb5;" horiz-adv-x="1267" d="M98 -430v1454h414v-586q0 -82 25.5 -115.5t80.5 -33.5q131 0 138 180v555h413v-1024h-368l-10 195q-76 -205 -279 -215v-410h-414z" />
<glyph unicode="&#xb6;" horiz-adv-x="1591" d="M66 907q0 223 143 334t436 111h828v-1557h-332v1245h-205v-1245h-334v670q-537 4 -536 442z" />
<glyph unicode="&#xb7;" horiz-adv-x="595" d="M68 723q0 96 61 149.5t170 53.5t169 -54.5t60 -148.5q0 -96 -60 -150.5t-169 -54.5t-170 54.5t-61 150.5z" />
<glyph unicode="&#xb8;" horiz-adv-x="1024" d="M238 -354l86 180q59 -59 149 -59q51 0 82 25.5t31 70.5q0 51 -49.5 85t-178.5 56l82 78q180 -18 277.5 -92t97.5 -180q0 -127 -86 -188.5t-227 -61.5q-96 0 -158.5 22.5t-105.5 63.5z" />
<glyph unicode="&#xb9;" horiz-adv-x="651" d="M45 1133v237q72 8 161 47t122 78h245v-813h-288v418q0 76 6 127q-127 -88 -246 -94z" />
<glyph unicode="&#xba;" horiz-adv-x="911" d="M66 983q0 174 103 272.5t286 98.5q182 0 286.5 -98.5t104.5 -272.5t-104.5 -272.5t-286.5 -98.5q-183 0 -286 98.5t-103 272.5zM74 272v207h764v-207h-764zM365 983q0 -98 21.5 -141t68.5 -43q49 0 69.5 42t20.5 142q0 98 -20.5 141t-69.5 43q-47 0 -68.5 -43t-21.5 -141 z" />
<glyph unicode="&#xbb;" horiz-adv-x="1265" d="M59 141l242 402l-242 401h347l256 -401l-256 -402h-347zM604 141l242 402l-242 401h346l256 -401l-256 -402h-346z" />
<glyph unicode="&#xbc;" horiz-adv-x="1882" d="M45 999v238q72 8 161 47t122 78h245v-813h-288v418q0 51 6 127q-127 -88 -246 -95zM301 0l975 1354h274l-975 -1354h-274zM1070 154v131l317 522h352v-461h115v-192h-115v-162h-256v162h-413zM1315 346h168v131q0 43 4 121l2 47h-6q-25 -68 -61 -127z" />
<glyph unicode="&#xbd;" horiz-adv-x="2023" d="M45 999v238q72 8 161 47t122 78h245v-813h-288v418q0 51 6 127q-127 -88 -246 -95zM301 0l975 1354h274l-975 -1354h-274zM1223 522q2 141 102 217t274 76q193 0 284 -79t91 -189q0 -143 -164 -250q-68 -47 -176 -82v-4q98 8 209 8h139v-227h-731v180q90 41 180 96 q236 143 236 254q0 33 -18.5 52.5t-55.5 19.5q-92 0 -86 -143z" />
<glyph unicode="&#xbe;" horiz-adv-x="2021" d="M8 748l271 96q0 -102 100 -103q39 0 60.5 19.5t21.5 52.5q0 31 -19.5 45t-62.5 14h-45v144h37q78 0 78 69q0 68 -72 68q-84 0 -92 -98l-260 82q18 121 116.5 178t247.5 57q166 0 254 -60.5t88 -174.5q0 -78 -46 -125t-128 -54v-8q94 0 142.5 -43t48.5 -125 q0 -113 -91.5 -179t-250.5 -66q-164 0 -261.5 49t-136.5 162zM441 0l975 1354h274l-975 -1354h-274zM1207 154v131l317 522h352v-461h115v-192h-115v-162h-256v162h-413zM1452 346h168v131q0 43 4 121l2 47h-6q-25 -68 -61 -127z" />
<glyph unicode="&#xbf;" horiz-adv-x="1290" d="M80 33q0 188 104.5 278t286.5 111l29 162h344l26 -316q-184 -8 -263 -52t-79 -120q0 -115 134 -114q156 0 163 180l404 -144q-18 -166 -161.5 -265t-432.5 -99q-258 0 -406.5 92t-148.5 287zM449 856q0 88 57 137t162 49q104 0 162.5 -49t58.5 -137t-58.5 -137 t-162.5 -49q-105 0 -162 49t-57 137z" />
<glyph unicode="&#xc0;" horiz-adv-x="1400" d="M-6 0l455 1352h501l457 -1352h-430l-76 281h-412l-77 -281h-418zM342 1800h379l108 -336h-294zM563 551h266l-73 268l-58 221h-4l-55 -219z" />
<glyph unicode="&#xc1;" horiz-adv-x="1400" d="M-6 0l455 1352h501l457 -1352h-430l-76 281h-412l-77 -281h-418zM532 1464l109 336h379l-193 -336h-295zM563 551h266l-73 268l-58 221h-4l-55 -219z" />
<glyph unicode="&#xc2;" horiz-adv-x="1400" d="M-6 0l455 1352h501l457 -1352h-430l-76 281h-412l-77 -281h-418zM279 1462l225 342h389l225 -342h-297l-123 158l-123 -158h-296zM563 551h266l-73 268l-58 221h-4l-55 -219z" />
<glyph unicode="&#xc3;" horiz-adv-x="1400" d="M-6 0l455 1352h501l457 -1352h-430l-76 281h-412l-77 -281h-418zM278 1458q12 344 287 345q61 0 101 -18.5t81 -51.5q27 -20 43.5 -29.5t36.5 -9.5q31 0 47.5 25.5t22.5 81.5h221q-6 -175 -79 -261t-208 -86q-61 0 -99 18.5t-81 51.5q-25 20 -42 30.5t-40 10.5 q-31 0 -47.5 -25.5t-22.5 -81.5h-221zM563 551h266l-73 268l-58 221h-4l-55 -219z" />
<glyph unicode="&#xc4;" horiz-adv-x="1400" d="M-6 0l455 1352h501l457 -1352h-430l-76 281h-412l-77 -281h-418zM270 1620q0 82 51 128t141 46q95 0 146 -46t51 -128q0 -84 -51 -129t-146 -45q-90 0 -141 46t-51 128zM563 551h266l-73 268l-58 221h-4l-55 -219zM739 1620q0 82 51 128t141 46q95 0 146 -46t51 -128 q0 -84 -51 -129t-146 -45q-90 0 -141 46t-51 128z" />
<glyph unicode="&#xc5;" horiz-adv-x="1400" d="M-6 0l459 1317q-76 63 -76 180q0 125 86 198.5t237 73.5q154 0 240 -73.5t86 -198.5q0 -111 -80 -180l461 -1317h-430l-76 281h-412l-77 -281h-418zM563 551h266l-73 268l-56 221h-8l-53 -219zM590 1481q0 -47 29.5 -76t80.5 -29t81 29t30 76q0 49 -29.5 77.5t-81.5 28.5 q-51 0 -80.5 -28.5t-29.5 -77.5z" />
<glyph unicode="&#xc6;" horiz-adv-x="1869" d="M-14 0l503 1352h1309v-297h-571v-242h438v-276h-438v-240h598v-297h-985v389h-318l-121 -389h-415zM600 645h240v424h-109z" />
<glyph unicode="&#xc7;" horiz-adv-x="1390" d="M74 676q0 217 82 373.5t233.5 239.5t360.5 83q229 0 391 -97t207 -294l-363 -145q-23 125 -74 171t-149 46q-125 0 -191.5 -94.5t-66.5 -282.5q0 -377 254 -377q102 0 156.5 48t72.5 155l373 -101q-86 -339 -432 -405q104 -74 104 -186q0 -127 -86 -188.5t-227 -61.5 q-96 0 -158.5 22.5t-105.5 63.5l86 180q59 -59 149 -59q51 0 82 25.5t31 70.5q0 41 -29 69.5t-102 51.5q-281 23 -439.5 204t-158.5 488z" />
<glyph unicode="&#xc8;" d="M125 0v1352h1089v-314h-671v-219h536v-291h-536v-215h698v-313h-1116zM350 1800h379l109 -336h-295z" />
<glyph unicode="&#xc9;" d="M125 0v1352h1089v-314h-671v-219h536v-291h-536v-215h698v-313h-1116zM483 1464l109 336h379l-193 -336h-295z" />
<glyph unicode="&#xca;" d="M125 0v1352h1089v-314h-671v-219h536v-291h-536v-215h698v-313h-1116zM231 1462l226 342h389l225 -342h-297l-123 158l-123 -158h-297z" />
<glyph unicode="&#xcb;" d="M125 0v1352h1089v-314h-671v-219h536v-291h-536v-215h698v-313h-1116zM221 1620q0 82 51 128t141 46q95 0 146 -46t51 -128q0 -84 -51 -129t-146 -45q-90 0 -141 46t-51 128zM690 1620q0 82 51 128t141 46q95 0 146 -46t51 -128q0 -84 -51 -129t-146 -45q-90 0 -141 46 t-51 128z" />
<glyph unicode="&#xcc;" horiz-adv-x="667" d="M-23 1800h379l109 -336h-295zM125 0v1352h418v-1352h-418z" />
<glyph unicode="&#xcd;" horiz-adv-x="667" d="M125 0v1352h418v-1352h-418zM166 1464l108 336h379l-192 -336h-295z" />
<glyph unicode="&#xce;" horiz-adv-x="667" d="M-86 1462l225 342h389l226 -342h-297l-123 158l-123 -158h-297zM125 0v1352h418v-1352h-418z" />
<glyph unicode="&#xcf;" horiz-adv-x="667" d="M-74 1620q0 82 48.5 128t136.5 46t139 -46t51 -128t-50 -128t-140 -46q-88 0 -136.5 46t-48.5 128zM125 0v1352h418v-1352h-418zM367 1620q0 82 48 128t136 46q90 0 141 -46t51 -128t-51 -128t-141 -46q-88 0 -136 46t-48 128z" />
<glyph unicode="&#xd0;" horiz-adv-x="1523" d="M20 580v184h160v588h621q315 0 482 -175.5t167 -500.5q0 -326 -167 -501t-482 -175h-621v580h-160zM600 305h150q147 0 209.5 89t62.5 282t-62.5 282t-209.5 89h-150v-283h217v-184h-217v-275z" />
<glyph unicode="&#xd1;" horiz-adv-x="1523" d="M125 0v1352h457l368 -670l88 -184h2l-8 268v586h367v-1352h-459l-369 670l-86 184h-4l8 -268v-586h-364zM342 1458q12 344 287 345q61 0 101 -18.5t81 -51.5q27 -20 43.5 -29.5t36.5 -9.5q31 0 47.5 25.5t22.5 81.5h221q-6 -175 -79 -261t-208 -86q-61 0 -99 18.5 t-81 51.5q-25 20 -42 30.5t-40 10.5q-31 0 -47.5 -25.5t-22.5 -81.5h-221z" />
<glyph unicode="&#xd2;" horiz-adv-x="1501" d="M74 676q0 217 82 374.5t234.5 239.5t361.5 82q317 0 495 -183t178 -513t-178 -513t-495 -183q-209 0 -361.5 81.5t-234.5 239.5t-82 375zM395 1800h379l109 -336h-295zM504 676q0 -190 61.5 -283.5t186.5 -93.5t185 92t60 285t-60 285t-185 92t-186.5 -93.5t-61.5 -283.5 z" />
<glyph unicode="&#xd3;" horiz-adv-x="1501" d="M74 676q0 217 82 374.5t234.5 239.5t361.5 82q317 0 495 -183t178 -513t-178 -513t-495 -183q-209 0 -361.5 81.5t-234.5 239.5t-82 375zM504 676q0 -190 61.5 -283.5t186.5 -93.5t185 92t60 285t-60 285t-185 92t-186.5 -93.5t-61.5 -283.5zM584 1464l108 336h379 l-192 -336h-295z" />
<glyph unicode="&#xd4;" horiz-adv-x="1501" d="M74 676q0 217 82 374.5t234.5 239.5t361.5 82q317 0 495 -183t178 -513t-178 -513t-495 -183q-209 0 -361.5 81.5t-234.5 239.5t-82 375zM332 1462l225 342h389l225 -342h-297l-122 158l-123 -158h-297zM504 676q0 -190 61.5 -283.5t186.5 -93.5t185 92t60 285t-60 285 t-185 92t-186.5 -93.5t-61.5 -283.5z" />
<glyph unicode="&#xd5;" horiz-adv-x="1501" d="M74 676q0 217 82 374.5t234.5 239.5t361.5 82q317 0 495 -183t178 -513t-178 -513t-495 -183q-209 0 -361.5 81.5t-234.5 239.5t-82 375zM330 1458q12 344 287 345q61 0 101 -18.5t81 -51.5q27 -20 43.5 -29.5t36.5 -9.5q31 0 47.5 25.5t22.5 81.5h221q-6 -175 -79 -261 t-208 -86q-61 0 -99 18.5t-81 51.5q-25 20 -42 30.5t-40 10.5q-31 0 -47.5 -25.5t-22.5 -81.5h-221zM504 676q0 -190 61.5 -283.5t186.5 -93.5t185 92t60 285t-60 285t-185 92t-186.5 -93.5t-61.5 -283.5z" />
<glyph unicode="&#xd6;" horiz-adv-x="1501" d="M74 676q0 217 82 374.5t234.5 239.5t361.5 82q317 0 495 -183t178 -513t-178 -513t-495 -183q-209 0 -361.5 81.5t-234.5 239.5t-82 375zM322 1620q0 82 51 128t141 46q95 0 146 -46t51 -128q0 -84 -51 -129t-146 -45q-90 0 -141 46t-51 128zM504 676q0 -190 61.5 -283.5 t186.5 -93.5t185 92t60 285t-60 285t-185 92t-186.5 -93.5t-61.5 -283.5zM791 1620q0 82 51 128t141 46q95 0 146 -46t51 -128q0 -84 -51 -129t-146 -45q-90 0 -141 46t-51 128z" />
<glyph unicode="&#xd7;" horiz-adv-x="1236" d="M90 365l311 309l-311 311l217 217l311 -311l312 311l215 -217l-309 -311l309 -309l-215 -218l-312 310l-311 -310z" />
<glyph unicode="&#xd8;" horiz-adv-x="1501" d="M74 676q0 217 82 374.5t234.5 239.5t361.5 82q213 0 368 -86l78 109h186l-145 -199q186 -182 186 -520q0 -330 -178 -513t-495 -183q-215 0 -369 86l-82 -115h-188l149 205q-92 90 -140 221t-48 299zM504 676q0 -119 20 -195l373 525q-59 47 -145 47q-125 0 -186.5 -93.5 t-61.5 -283.5zM614 340q57 -41 138 -41q125 0 185 92t60 285q0 104 -18 180z" />
<glyph unicode="&#xd9;" horiz-adv-x="1454" d="M96 567v785h422v-807q0 -246 209 -246q211 0 211 246v807h420v-785q0 -588 -631 -587q-631 0 -631 587zM371 1800h379l108 -336h-295z" />
<glyph unicode="&#xda;" horiz-adv-x="1454" d="M96 567v785h422v-807q0 -246 209 -246q211 0 211 246v807h420v-785q0 -588 -631 -587q-631 0 -631 587zM561 1464l109 336h379l-193 -336h-295z" />
<glyph unicode="&#xdb;" horiz-adv-x="1454" d="M96 567v785h422v-807q0 -246 209 -246q211 0 211 246v807h420v-785q0 -588 -631 -587q-631 0 -631 587zM307 1462l225 342h390l225 -342h-297l-123 158l-123 -158h-297z" />
<glyph unicode="&#xdc;" horiz-adv-x="1454" d="M96 567v785h422v-807q0 -246 209 -246q211 0 211 246v807h420v-785q0 -588 -631 -587q-631 0 -631 587zM299 1620q0 82 51 128t141 46q95 0 146 -46t51 -128q0 -84 -51 -129t-146 -45q-90 0 -141 46t-51 128zM768 1620q0 82 51 128t141 46q95 0 146 -46t51 -128 q0 -84 -51 -129t-146 -45q-90 0 -141 46t-51 128z" />
<glyph unicode="&#xdd;" horiz-adv-x="1406" d="M18 1352h424l164 -338l101 -236l98 236l166 338h415l-473 -873v-479h-419v479zM535 1464l108 336h379l-193 -336h-294z" />
<glyph unicode="&#xde;" horiz-adv-x="1392" d="M125 0v1352h418v-193h235q264 0 405.5 -119.5t139.5 -349.5q2 -229 -139.5 -349t-405.5 -120h-235v-221h-418zM543 524h174q188 0 186 166q2 164 -186 164h-174v-330z" />
<glyph unicode="&#xdf;" horiz-adv-x="1345" d="M100 0v918q0 264 146.5 401t470.5 137q176 0 300 -51t187.5 -141t63.5 -209q0 -86 -41 -161t-117 -120t-180 -45v-4q166 0 265 -99.5t99 -258.5q0 -106 -49 -193.5t-150.5 -140.5t-250.5 -53q-84 0 -152.5 17t-113.5 48l59 266q25 -25 51.5 -35t69.5 -10q63 0 101 43 t38 117q0 72 -43 109.5t-127 37.5h-106l45 283h59q68 2 105.5 45t37.5 117q0 72 -42 111.5t-113 39.5q-109 0 -154 -62.5t-45 -207.5v-899h-414z" />
<glyph unicode="&#xe0;" horiz-adv-x="1198" d="M47 229q0 129 92 209t307 123l218 45v39q0 59 -31 92t-86 33q-61 0 -100 -31.5t-48 -109.5l-340 71q23 164 149 254t353 90q512 0 512 -407v-328q0 -82 72 -82q34 1 57 9l-33 -220q-68 -37 -145 -36q-117 0 -193.5 41.5t-101.5 123.5q-45 -78 -136 -121.5t-228 -43.5 q-156 0 -237 64.5t-81 184.5zM217 1503h375l129 -358h-295zM444 301q0 -39 24 -59.5t62 -20.5q54 0 94 32t40 89v94l-113 -28q-106 -27 -107 -107z" />
<glyph unicode="&#xe1;" horiz-adv-x="1198" d="M47 229q0 129 92 209t307 123l218 45v39q0 59 -31 92t-86 33q-61 0 -100 -31.5t-48 -109.5l-340 71q23 164 149 254t353 90q512 0 512 -407v-328q0 -82 72 -82q34 1 57 9l-33 -220q-68 -37 -145 -36q-117 0 -193.5 41.5t-101.5 123.5q-45 -78 -136 -121.5t-228 -43.5 q-156 0 -237 64.5t-81 184.5zM389 1145l129 358h375l-209 -358h-295zM444 301q0 -39 24 -59.5t62 -20.5q54 0 94 32t40 89v94l-113 -28q-106 -27 -107 -107z" />
<glyph unicode="&#xe2;" horiz-adv-x="1198" d="M47 229q0 129 92 209t307 123l218 45v39q0 59 -31 92t-86 33q-61 0 -100 -31.5t-48 -109.5l-340 71q23 164 149 254t353 90q512 0 512 -407v-328q0 -82 72 -82q34 1 57 9l-33 -220q-68 -37 -145 -36q-117 0 -193.5 41.5t-101.5 123.5q-45 -78 -136 -121.5t-228 -43.5 q-156 0 -237 64.5t-81 184.5zM151 1130l219 361h394l219 -361h-289l-127 162l-127 -162h-289zM444 301q0 -39 24 -59.5t62 -20.5q54 0 94 32t40 89v94l-113 -28q-106 -27 -107 -107z" />
<glyph unicode="&#xe3;" horiz-adv-x="1198" d="M47 229q0 129 92 209t307 123l218 45v39q0 59 -31 92t-86 33q-61 0 -100 -31.5t-48 -109.5l-340 71q23 164 149 254t353 90q512 0 512 -407v-328q0 -82 72 -82q34 1 57 9l-33 -220q-68 -37 -145 -36q-117 0 -193.5 41.5t-101.5 123.5q-45 -78 -136 -121.5t-228 -43.5 q-156 0 -237 64.5t-81 184.5zM145 1130q12 344 287 345q61 0 101 -18.5t81 -51.5q27 -20 43.5 -29.5t36.5 -9.5q31 0 47.5 25.5t22.5 81.5h221q-6 -175 -79 -261t-208 -86q-61 0 -99 18.5t-81 51.5q-25 20 -42 30.5t-40 10.5q-31 0 -47.5 -25.5t-22.5 -81.5h-221zM444 301 q0 -39 24 -59.5t62 -20.5q54 0 94 32t40 89v94l-113 -28q-106 -27 -107 -107z" />
<glyph unicode="&#xe4;" horiz-adv-x="1198" d="M47 229q0 129 92 209t307 123l218 45v39q0 59 -31 92t-86 33q-61 0 -100 -31.5t-48 -109.5l-340 71q23 164 149 254t353 90q512 0 512 -407v-328q0 -82 72 -82q34 1 57 9l-33 -220q-68 -37 -145 -36q-117 0 -193.5 41.5t-101.5 123.5q-45 -78 -136 -121.5t-228 -43.5 q-156 0 -237 64.5t-81 184.5zM137 1292q0 82 51 128t141 46q95 0 146 -46t51 -128q0 -84 -51 -129t-146 -45q-90 0 -141 46t-51 128zM444 301q0 -39 24 -59.5t62 -20.5q54 0 94 32t40 89v94l-113 -28q-106 -27 -107 -107zM606 1292q0 82 51 128t141 46q95 0 146 -46t51 -128 q0 -84 -51 -129t-146 -45q-90 0 -141 46t-51 128z" />
<glyph unicode="&#xe5;" horiz-adv-x="1198" d="M47 229q0 129 92 209t307 123l218 45v39q0 59 -31 92t-86 33q-61 0 -100 -31.5t-48 -109.5l-340 71q23 164 149 254t353 90q512 0 512 -407v-328q0 -82 72 -82q34 1 57 9l-33 -220q-68 -37 -145 -36q-117 0 -193.5 41.5t-101.5 123.5q-45 -78 -136 -121.5t-228 -43.5 q-156 0 -237 64.5t-81 184.5zM286 1362q0 117 75 183.5t208 66.5q135 0 209 -66.5t74 -183.5q0 -119 -74 -185.5t-209 -66.5q-133 0 -208 66.5t-75 185.5zM444 301q0 -39 24 -59.5t62 -20.5q54 0 94 32t40 89v94l-113 -28q-106 -27 -107 -107zM477 1362q0 -43 24.5 -67.5 t67.5 -24.5t68.5 24.5t25.5 67.5t-25.5 66.5t-68.5 23.5t-67.5 -23.5t-24.5 -66.5z" />
<glyph unicode="&#xe6;" horiz-adv-x="1794" d="M49 225q0 133 88 206t293 114l238 49v51q0 125 -123 125q-63 0 -97 -31.5t-47 -107.5l-340 67q20 162 138 254t338 92q115 0 208 -34.5t156 -100.5q119 135 328 135q244 0 376 -135t132 -360q-1 -80 -11 -125h-659q14 -88 61.5 -125t122.5 -37q59 0 89 23.5t44 74.5 l334 -96q-39 -139 -167 -211.5t-316 -72.5q-270 0 -385 192q-59 -90 -177 -141t-290 -51q-168 0 -251 66.5t-83 178.5zM436 291q0 -88 92 -88q58 0 99 34.5t41 106.5v88l-105 -24q-68 -18 -97.5 -44t-29.5 -73zM1065 588h287q-6 90 -37 133t-96 43q-70 0 -108 -41t-46 -135z " />
<glyph unicode="&#xe7;" horiz-adv-x="1175" d="M57 512q0 254 145.5 393t407.5 139q260 0 382 -95t138 -238l-382 -117q-6 166 -117 166q-82 0 -120 -58.5t-38 -193.5t40 -189.5t116 -54.5q111 0 129 150l370 -117q-8 -106 -91 -187t-228 -112q109 -74 109 -188q0 -127 -86.5 -188.5t-227.5 -61.5q-96 0 -158.5 22.5 t-105.5 63.5l86 180q59 -59 149 -59q51 0 82 25.5t31 70.5q0 39 -28.5 68.5t-100.5 50.5q-246 18 -374 155t-128 375z" />
<glyph unicode="&#xe8;" horiz-adv-x="1193" d="M57 512q0 254 144.5 393t406.5 139q256 0 393.5 -136t137.5 -371q-1 -74 -11 -119h-673q12 -86 55 -121t121 -35q125 0 153 98l334 -96q-39 -139 -169 -211.5t-318 -72.5q-279 0 -426.5 138t-147.5 394zM256 1503h375l129 -358h-295zM455 598h297q-10 84 -44 125t-98 41 q-67 0 -105 -39t-50 -127z" />
<glyph unicode="&#xe9;" horiz-adv-x="1193" d="M57 512q0 254 144.5 393t406.5 139q256 0 393.5 -136t137.5 -371q-1 -74 -11 -119h-673q12 -86 55 -121t121 -35q125 0 153 98l334 -96q-39 -139 -169 -211.5t-318 -72.5q-279 0 -426.5 138t-147.5 394zM430 1145l129 358h375l-209 -358h-295zM455 598h297 q-10 84 -44 125t-98 41q-67 0 -105 -39t-50 -127z" />
<glyph unicode="&#xea;" horiz-adv-x="1193" d="M57 512q0 254 144.5 393t406.5 139q256 0 393.5 -136t137.5 -371q-1 -74 -11 -119h-673q12 -86 55 -121t121 -35q125 0 153 98l334 -96q-39 -139 -169 -211.5t-318 -72.5q-279 0 -426.5 138t-147.5 394zM190 1130l219 361h394l219 -361h-289l-127 162l-127 -162h-289z M455 598h297q-10 84 -44 125t-98 41q-67 0 -105 -39t-50 -127z" />
<glyph unicode="&#xeb;" horiz-adv-x="1193" d="M57 512q0 254 144.5 393t406.5 139q256 0 393.5 -136t137.5 -371q-1 -74 -11 -119h-673q12 -86 55 -121t121 -35q125 0 153 98l334 -96q-39 -139 -169 -211.5t-318 -72.5q-279 0 -426.5 138t-147.5 394zM176 1292q0 82 51 128t141 46q95 0 146 -46t51 -128 q0 -84 -51 -129t-146 -45q-90 0 -141 46t-51 128zM455 598h297q-10 84 -44 125t-98 41q-67 0 -105 -39t-50 -127zM645 1292q0 82 51 128t141 46q95 0 146 -46t51 -128q0 -84 -51 -129t-146 -45q-90 0 -141 46t-51 128z" />
<glyph unicode="&#xec;" horiz-adv-x="614" d="M-43 1503h375l129 -358h-295zM100 0v1024h414v-1024h-414z" />
<glyph unicode="&#xed;" horiz-adv-x="614" d="M100 0v1024h414v-1024h-414zM135 1145l129 358h375l-209 -358h-295z" />
<glyph unicode="&#xee;" horiz-adv-x="614" d="M-109 1130l219 361h394l219 -361h-289l-127 162l-127 -162h-289zM100 0v1024h414v-1024h-414z" />
<glyph unicode="&#xef;" horiz-adv-x="614" d="M-84 1292q0 88 46 133t136 45q182 0 183 -178q0 -178 -183 -178q-182 0 -182 178zM100 0v1024h414v-1024h-414zM334 1292q0 178 182 178q90 0 136 -45t46 -133q0 -178 -182 -178t-182 178z" />
<glyph unicode="&#xf0;" horiz-adv-x="1224" d="M70 502q0 162 62.5 279.5t177 179t265.5 61.5q197 0 273 -141q-37 164 -150 295l-317 -62l-23 119l256 29q-106 96 -276 211h350q111 -55 209 -154l250 55l31 -119l-209 -18q193 -254 192 -606q0 -233 -57 -375.5t-181 -209t-327 -66.5q-246 0 -386 137t-140 385z M485 502q0 -125 33 -181.5t107 -56.5q80 0 114.5 56.5t34.5 181.5q0 141 -34.5 200.5t-112.5 59.5q-76 0 -109 -59.5t-33 -200.5z" />
<glyph unicode="&#xf1;" horiz-adv-x="1269" d="M100 0v1024h373l10 -211q45 113 135.5 172t217.5 59q157 0 246 -92t89 -260v-692h-413v582q0 84 -26.5 118.5t-78.5 34.5q-66 0 -102.5 -48t-36.5 -148v-539h-414zM215 1130q12 344 287 345q61 0 101 -18.5t81 -51.5q27 -20 43.5 -29.5t36.5 -9.5q31 0 47.5 25.5 t22.5 81.5h221q-6 -175 -79 -261t-208 -86q-61 0 -99 18.5t-81 51.5q-25 20 -42 30.5t-40 10.5q-31 0 -47.5 -25.5t-22.5 -81.5h-221z" />
<glyph unicode="&#xf2;" horiz-adv-x="1228" d="M57 512q0 252 146.5 392t410.5 140q265 0 411 -140t146 -392t-146 -392t-411 -140q-264 0 -410.5 140t-146.5 392zM264 1503h375l129 -358h-295zM473 512q0 -139 32 -193.5t109 -54.5q78 0 110 54.5t32 193.5t-32 193.5t-110 54.5q-77 0 -109 -54.5t-32 -193.5z" />
<glyph unicode="&#xf3;" horiz-adv-x="1228" d="M57 512q0 252 146.5 392t410.5 140q265 0 411 -140t146 -392t-146 -392t-411 -140q-264 0 -410.5 140t-146.5 392zM438 1145l129 358h375l-209 -358h-295zM473 512q0 -139 32 -193.5t109 -54.5q78 0 110 54.5t32 193.5t-32 193.5t-110 54.5q-77 0 -109 -54.5t-32 -193.5z " />
<glyph unicode="&#xf4;" horiz-adv-x="1228" d="M57 512q0 252 146.5 392t410.5 140q265 0 411 -140t146 -392t-146 -392t-411 -140q-264 0 -410.5 140t-146.5 392zM198 1130l219 361h394l219 -361h-289l-127 162l-127 -162h-289zM473 512q0 -139 32 -193.5t109 -54.5q78 0 110 54.5t32 193.5t-32 193.5t-110 54.5 q-77 0 -109 -54.5t-32 -193.5z" />
<glyph unicode="&#xf5;" horiz-adv-x="1228" d="M57 512q0 252 146.5 392t410.5 140q265 0 411 -140t146 -392t-146 -392t-411 -140q-264 0 -410.5 140t-146.5 392zM194 1130q12 344 287 345q61 0 101 -18.5t81 -51.5q27 -20 43.5 -29.5t36.5 -9.5q31 0 47.5 25.5t22.5 81.5h221q-6 -175 -79 -261t-208 -86 q-61 0 -99 18.5t-81 51.5q-25 20 -42 30.5t-40 10.5q-31 0 -47.5 -25.5t-22.5 -81.5h-221zM473 512q0 -139 32 -193.5t109 -54.5q78 0 110 54.5t32 193.5t-32 193.5t-110 54.5q-77 0 -109 -54.5t-32 -193.5z" />
<glyph unicode="&#xf6;" horiz-adv-x="1228" d="M57 512q0 252 146.5 392t410.5 140q265 0 411 -140t146 -392t-146 -392t-411 -140q-264 0 -410.5 140t-146.5 392zM184 1292q0 82 51 128t141 46q95 0 146 -46t51 -128q0 -84 -51 -129t-146 -45q-90 0 -141 46t-51 128zM473 512q0 -139 32 -193.5t109 -54.5 q78 0 110 54.5t32 193.5t-32 193.5t-110 54.5q-77 0 -109 -54.5t-32 -193.5zM653 1292q0 82 51 128t141 46q95 0 146 -46t51 -128q0 -84 -51 -129t-146 -45q-90 0 -141 46t-51 128z" />
<glyph unicode="&#xf7;" horiz-adv-x="1236" d="M96 530v283h1045v-283h-1045zM432 219q0 84 50 132t139 48q88 0 137 -48t49 -132q0 -86 -49 -133t-137 -47q-90 0 -139.5 47t-49.5 133zM432 1126q0 86 50 134.5t139 48.5q88 0 137 -48.5t49 -134.5q0 -84 -49 -132t-137 -48t-138.5 48t-50.5 132z" />
<glyph unicode="&#xf8;" horiz-adv-x="1228" d="M57 512q0 252 146.5 392t410.5 140q191 1 326 -75l76 98h137l-129 -162q72 -68 109.5 -168t37.5 -225q0 -252 -146 -392t-411 -140q-182 0 -309 67l-72 -96h-137l121 158q-160 137 -160 403zM473 512q0 -57 12 -104h2l39 61l187 248q-31 43 -99 43q-78 0 -109.5 -54.5 t-31.5 -193.5zM526 295q29 -31 88 -31q78 0 110 54.5t32 193.5q0 41 -11 78h-2l-38 -58z" />
<glyph unicode="&#xf9;" horiz-adv-x="1269" d="M96 336v688h414v-586q0 -82 25.5 -115.5t80.5 -33.5q66 0 103 49t37 147v539h413v-1024h-372l-11 203q-92 -223 -350 -223q-340 0 -340 356zM275 1503h375l129 -358h-295z" />
<glyph unicode="&#xfa;" horiz-adv-x="1269" d="M96 336v688h414v-586q0 -82 25.5 -115.5t80.5 -33.5q66 0 103 49t37 147v539h413v-1024h-372l-11 203q-92 -223 -350 -223q-340 0 -340 356zM448 1145l129 358h375l-209 -358h-295z" />
<glyph unicode="&#xfb;" horiz-adv-x="1269" d="M96 336v688h414v-586q0 -82 25.5 -115.5t80.5 -33.5q66 0 103 49t37 147v539h413v-1024h-372l-11 203q-92 -223 -350 -223q-340 0 -340 356zM209 1130l219 361h394l219 -361h-289l-127 162l-127 -162h-289z" />
<glyph unicode="&#xfc;" horiz-adv-x="1269" d="M96 336v688h414v-586q0 -82 25.5 -115.5t80.5 -33.5q66 0 103 49t37 147v539h413v-1024h-372l-11 203q-92 -223 -350 -223q-340 0 -340 356zM195 1292q0 82 51 128t141 46q95 0 146 -46t51 -128q0 -84 -51 -129t-146 -45q-90 0 -141 46t-51 128zM664 1292q0 82 51 128 t141 46q95 0 146 -46t51 -128q0 -84 -51 -129t-146 -45q-90 0 -141 46t-51 128z" />
<glyph unicode="&#xfd;" horiz-adv-x="1193" d="M-2 -369l80 267q33 -23 72.5 -33t107.5 -10q63 0 98 16t52 59l14 39l-125 291l-299 764h455l122 -555l43 -227l50 233l129 549h407l-334 -963q-63 -186 -139 -294.5t-180.5 -157.5t-253.5 -49q-184 0 -299 71zM467 1145l129 358h375l-209 -358h-295z" />
<glyph unicode="&#xfe;" d="M100 -430v1876h414v-612q43 98 121 154t190 56q172 0 283 -130t111 -388q0 -203 -62.5 -324.5t-155 -171.5t-190.5 -50q-207 0 -297 178v-588h-414zM514 504q0 -227 141 -228q78 0 113 53.5t35 182.5t-35 183.5t-113 54.5q-141 0 -141 -230v-16z" />
<glyph unicode="&#xff;" horiz-adv-x="1193" d="M-2 -369l80 267q33 -23 72.5 -33t107.5 -10q63 0 98 16t52 59l14 39l-125 291l-299 764h455l122 -555l43 -227l50 233l129 549h407l-334 -963q-63 -186 -139 -294.5t-180.5 -157.5t-253.5 -49q-184 0 -299 71zM213 1292q0 82 51 128t141 46q95 0 146 -46t51 -128 q0 -84 -51 -129t-146 -45q-90 0 -141 46t-51 128zM682 1292q0 82 51 128t141 46q95 0 146 -46t51 -128q0 -84 -51 -129t-146 -45q-90 0 -141 46t-51 128z" />
<glyph unicode="&#x152;" horiz-adv-x="2123" d="M74 676q0 217 77.5 373.5t222 239.5t339.5 83q254 0 413 -164v144h926v-314h-659v-219h524v-291h-524v-215h684v-313h-951v145q-160 -166 -413 -165q-195 0 -339.5 82.5t-222 239.5t-77.5 374zM494 676q0 -190 60 -283.5t181 -93.5t181.5 93t60.5 284q0 190 -60.5 283.5 t-181.5 93.5t-181 -93.5t-60 -283.5z" />
<glyph unicode="&#x153;" horiz-adv-x="1927" d="M57 512q0 250 143.5 391t391.5 141q260 0 389 -163q119 164 360 163q256 0 393.5 -135t137.5 -360q0 -76 -10 -121h-674q12 -92 54 -129t122 -37q125 0 154 98l333 -96q-37 -139 -167 -211.5t-320 -72.5q-256 0 -383 163q-127 -164 -389 -163q-248 0 -391.5 141 t-143.5 391zM475 512q0 -137 32 -192.5t107 -55.5q78 0 111 55.5t33 192.5q0 139 -33 194.5t-111 55.5q-76 0 -107.5 -56.5t-31.5 -193.5zM1188 596h293q-8 84 -41 126t-97 42q-69 0 -106 -39t-49 -129z" />
<glyph unicode="&#x178;" horiz-adv-x="1406" d="M18 1352h424l164 -338l101 -236l98 236l166 338h415l-473 -873v-479h-419v479zM272 1620q0 82 51 128t141 46q95 0 146 -46t51 -128q0 -84 -51 -129t-146 -45q-90 0 -141 46t-51 128zM741 1620q0 82 51 128t141 46q95 0 146 -46t51 -128q0 -84 -51 -129t-146 -45 q-90 0 -141 46t-51 128z" />
<glyph unicode="&#x2c6;" horiz-adv-x="1024" d="M96 1130l219 361h394l219 -361h-289l-127 162l-127 -162h-289z" />
<glyph unicode="&#x2dc;" horiz-adv-x="1024" d="M92 1130q12 344 287 345q61 0 101 -18.5t81 -51.5q27 -20 43.5 -29.5t36.5 -9.5q31 0 47.5 25.5t22.5 81.5h221q-6 -175 -79 -261t-208 -86q-61 0 -99 18.5t-81 51.5q-25 20 -42 30.5t-40 10.5q-31 0 -47.5 -25.5t-22.5 -81.5h-221z" />
<glyph unicode="&#x2000;" horiz-adv-x="902" />
<glyph unicode="&#x2001;" horiz-adv-x="1804" />
<glyph unicode="&#x2002;" horiz-adv-x="902" />
<glyph unicode="&#x2003;" horiz-adv-x="1804" />
<glyph unicode="&#x2004;" horiz-adv-x="601" />
<glyph unicode="&#x2005;" horiz-adv-x="451" />
<glyph unicode="&#x2006;" horiz-adv-x="300" />
<glyph unicode="&#x2007;" horiz-adv-x="300" />
<glyph unicode="&#x2008;" horiz-adv-x="225" />
<glyph unicode="&#x2009;" horiz-adv-x="360" />
<glyph unicode="&#x200a;" horiz-adv-x="100" />
<glyph unicode="&#x2010;" horiz-adv-x="1093" d="M160 391v324h776v-324h-776z" />
<glyph unicode="&#x2011;" horiz-adv-x="1093" d="M160 391v324h776v-324h-776z" />
<glyph unicode="&#x2012;" horiz-adv-x="1093" d="M160 391v324h776v-324h-776z" />
<glyph unicode="&#x2013;" horiz-adv-x="1435" d="M156 391v322h1124v-322h-1124z" />
<glyph unicode="&#x2014;" horiz-adv-x="2054" d="M156 391v322h1740v-322h-1740z" />
<glyph unicode="&#x2018;" horiz-adv-x="630" d="M76 975q0 143 78.5 259t226.5 177l178 -119q-104 -41 -174 -95t-100 -128l10 -6q23 25 63 24q78 0 135.5 -48t57.5 -140q0 -102 -62.5 -156.5t-169.5 -54.5q-120 0 -181.5 81t-61.5 206z" />
<glyph unicode="&#x2019;" horiz-adv-x="630" d="M82 803q221 86 274 221l-10 8q-25 -27 -63 -26q-76 0 -133.5 49t-57.5 139q0 104 61.5 157.5t168.5 53.5q120 0 182.5 -80t62.5 -205q0 -143 -78.5 -259t-228.5 -177z" />
<glyph unicode="&#x201a;" horiz-adv-x="610" d="M59 -215q104 43 174 97.5t99 125.5l-8 8q-27 -27 -66 -26q-76 0 -133 49t-57 139q0 104 61 157.5t168 53.5q121 0 183.5 -80t62.5 -205q0 -143 -79 -258.5t-228 -177.5z" />
<glyph unicode="&#x201c;" horiz-adv-x="1173" d="M76 975q0 143 78.5 259t226.5 177l178 -119q-104 -41 -174 -95t-100 -128l10 -6q23 25 63 24q78 0 135.5 -48t57.5 -140q0 -102 -62.5 -156.5t-169.5 -54.5q-120 0 -181.5 81t-61.5 206zM619 975q0 143 78.5 259t226.5 177l178 -119q-104 -41 -174 -95t-100 -128l10 -6 q23 25 63 24q78 0 135.5 -48t57.5 -140q0 -102 -62.5 -156.5t-169.5 -54.5q-120 0 -181.5 81t-61.5 206z" />
<glyph unicode="&#x201d;" horiz-adv-x="1161" d="M82 803q221 86 274 221l-10 8q-25 -27 -63 -26q-76 0 -133.5 49t-57.5 139q0 104 61.5 157.5t168.5 53.5q120 0 182.5 -80t62.5 -205q0 -143 -78.5 -259t-228.5 -177zM612 803q221 86 274 221l-10 8q-25 -27 -63 -26q-76 0 -133.5 49t-57.5 139q0 104 61.5 157.5 t168.5 53.5q120 0 182.5 -80t62.5 -205q0 -143 -78.5 -259t-228.5 -177z" />
<glyph unicode="&#x201e;" horiz-adv-x="1140" d="M59 -215q104 43 174 97.5t99 125.5l-8 8q-27 -27 -66 -26q-76 0 -133 49t-57 139q0 104 61 157.5t168 53.5q121 0 183.5 -80t62.5 -205q0 -143 -79 -258.5t-228 -177.5zM587 -215q104 43 174 97.5t99 125.5l-8 8q-27 -27 -66 -26q-76 0 -133 49t-57 139q0 104 61 157.5 t168 53.5q121 0 183.5 -80t62.5 -205q0 -143 -79 -258.5t-228 -177.5z" />
<glyph unicode="&#x2022;" horiz-adv-x="880" d="M104 678q0 154 89.5 240t246.5 86q158 0 247 -86.5t89 -239.5q0 -152 -89 -238t-247 -86t-247 86t-89 238z" />
<glyph unicode="&#x2026;" horiz-adv-x="1921" d="M84 186q0 94 60.5 148.5t168.5 54.5q109 0 169.5 -53t60.5 -150q0 -96 -60.5 -149t-169.5 -53t-169 53t-60 149zM731 186q0 94 60.5 148.5t168.5 54.5q109 0 169.5 -53t60.5 -150q0 -96 -60.5 -149t-169.5 -53t-169 53t-60 149zM1379 186q0 94 60.5 148.5t168.5 54.5 q109 0 169.5 -53t60.5 -150q0 -96 -60.5 -149t-169.5 -53t-169 53t-60 149z" />
<glyph unicode="&#x202f;" horiz-adv-x="360" />
<glyph unicode="&#x2039;" horiz-adv-x="722" d="M59 543l256 401h347l-242 -401l242 -402h-347z" />
<glyph unicode="&#x203a;" horiz-adv-x="722" d="M59 141l242 402l-242 401h347l258 -401l-258 -402h-347z" />
<glyph unicode="&#x205f;" horiz-adv-x="451" />
<glyph unicode="&#x20ac;" horiz-adv-x="1437" d="M25 453v135h159q-4 57 -4 88l2 51h-157v135h174q47 244 216 377t431 133q207 0 357.5 -86t193.5 -235l-297 -140q-10 92 -74.5 135.5t-159.5 43.5q-231 0 -291 -228h412l-57 -135h-373v-51q0 -59 2 -88h361l-52 -135h-284q31 -96 97.5 -143.5t176.5 -47.5q92 0 152.5 46 t79.5 143l311 -91q-41 -188 -189.5 -284t-365.5 -96q-252 0 -419 123.5t-220 349.5h-182z" />
<glyph unicode="&#x2122;" horiz-adv-x="1689" d="M20 1186v166h648v-166h-211v-510h-226v510h-211zM739 676v676h334l86 -287l31 -131h6l29 131l88 287h325v-676h-223v246l10 219h-6l-47 -174l-90 -291h-184l-90 293l-47 172h-7l11 -219v-246h-226z" />
<glyph unicode="&#x25fc;" horiz-adv-x="1024" d="M0 0v1024h1024v-1024h-1024z" />
</font>
</defs>
</svg>
