<?xml version="1.0" standalone="no"?>
<!DOCTYPE svg PUBLIC "-//W3C//DTD SVG 1.1//EN" "http://www.w3.org/Graphics/SVG/1.1/DTD/svg11.dtd" >
<svg xmlns="http://www.w3.org/2000/svg" xmlns:xlink="http://www.w3.org/1999/xlink" version="1.1">
<metadata></metadata>
<defs>
<font id="work_sansbold" horiz-adv-x="1236" >
<font-face units-per-em="2048" ascent="1638" descent="-410" />
<missing-glyph horiz-adv-x="585" />
<glyph unicode="&#xfb01;" horiz-adv-x="1445" d="M31 776v248h164v94q0 184 114.5 276.5t298.5 92.5q160 0 236 -60l-35 -217q-45 33 -117 33q-170 0 -170 -147v-72h312v-248h-291v-776h-348v776h-164zM946 1309q0 88 48.5 128t154.5 40t154.5 -40t48.5 -128q0 -86 -48 -126t-155 -40q-106 0 -154.5 40t-48.5 126zM975 0 v1024h348v-1024h-348z" />
<glyph unicode="&#xfb02;" horiz-adv-x="1519" d="M31 776v248h164v94q0 184 114.5 276.5t298.5 92.5q160 0 236 -60l-35 -217q-45 33 -117 33q-170 0 -170 -147v-72h312v-248h-291v-776h-348v776h-164zM971 303v1155h348v-1104q0 -70 20.5 -98.5t73.5 -28.5q49 0 105 19l-23 -215q-37 -23 -96.5 -37t-116.5 -14 q-164 0 -237.5 76.5t-73.5 246.5z" />
<glyph horiz-adv-x="0" />
<glyph horiz-adv-x="682" />
<glyph unicode=" "  horiz-adv-x="585" />
<glyph unicode="&#x09;" horiz-adv-x="585" />
<glyph unicode="&#xa0;" horiz-adv-x="585" />
<glyph unicode="!" horiz-adv-x="616" d="M111 154q0 82 52 127t144 45t145.5 -45t53.5 -127q0 -80 -53.5 -125t-145.5 -45t-144 45t-52 125zM127 915v437h362v-437l-38 -475h-285z" />
<glyph unicode="&#x22;" horiz-adv-x="915" d="M129 821v568h291l-60 -568h-231zM535 821v568h291l-60 -568h-231z" />
<glyph unicode="#" horiz-adv-x="1411" d="M53 328v209h248l45 282h-205v209h240l51 324h238l-52 -324h265l51 324h237l-51 -324h236v-209h-271l-45 -282h228v-209h-262l-54 -328h-235l53 328h-266l-51 -328h-238l51 328h-213zM539 537h264l47 282h-266z" />
<glyph unicode="$" horiz-adv-x="1306" d="M51 258l174 203q45 -90 136.5 -146.5t209.5 -72.5v311q-143 29 -242.5 65.5t-166 113.5t-66.5 206q0 164 126 276.5t349 133.5v184h199v-184q172 -12 281.5 -73t199.5 -171l-174 -197q-57 94 -131 142.5t-176 58.5v-322q139 -29 237.5 -67.5t165 -117.5t66.5 -210 q0 -164 -129 -266t-340 -121v-184h-199v184q-186 12 -311 75.5t-209 178.5zM414 958q0 -51 41 -80.5t116 -50.5v275q-76 -12 -116.5 -49t-40.5 -95zM770 246q154 22 154 131q0 53 -39 82.5t-115 50.5v-264z" />
<glyph unicode="%" horiz-adv-x="1921" d="M61 987q0 174 104.5 279.5t276.5 105.5t276.5 -105.5t104.5 -279.5t-104.5 -279.5t-276.5 -105.5t-276.5 105.5t-104.5 279.5zM322 987q0 -72 31.5 -111.5t88.5 -39.5q59 0 91 39.5t32 111.5t-31.5 112t-91.5 40q-57 0 -88.5 -40t-31.5 -112zM358 0l940 1354h267 l-940 -1354h-267zM1096 365q0 174 104.5 279.5t276.5 105.5t276.5 -105.5t104.5 -279.5t-104.5 -279.5t-276.5 -105.5t-276.5 105t-104.5 280zM1354 365q0 -72 31.5 -112t91.5 -40q59 0 90.5 40t31.5 112t-31.5 111.5t-90.5 39.5q-60 0 -91.5 -40t-31.5 -111z" />
<glyph unicode="&#x26;" horiz-adv-x="1323" d="M51 346q0 111 63.5 210t213.5 155q-82 98 -111 166.5t-29 150.5q0 88 46.5 167t138.5 128t227 49q195 0 300.5 -90t105.5 -229q0 -252 -293 -371q63 -70 96 -107l137 -147q53 115 47 266l232 -6q0 -240 -131 -401q45 -35 86 -50.5t88 -15.5q31 0 47 2l-31 -243 q-115 0 -193.5 24.5t-175.5 101.5q-70 -61 -169 -93.5t-220 -32.5q-213 0 -343 96t-132 270zM350 371q0 -72 58.5 -117t152.5 -45q107 0 199 41l-119 123q-123 127 -178 186q-66 -49 -89.5 -91t-23.5 -97zM485 1016q0 -41 21.5 -82t87.5 -119q82 57 108.5 106.5t26.5 110.5 q0 53 -31.5 82t-89.5 29q-57 0 -90 -34t-33 -93z" />
<glyph unicode="'" horiz-adv-x="512" d="M129 821v568h291l-60 -568h-231z" />
<glyph unicode="(" horiz-adv-x="800" d="M137 559q0 315 121 553t358 395l164 -159q-176 -158 -252.5 -340.5t-76.5 -448.5q0 -268 76.5 -450.5t252.5 -339.5l-164 -160q-479 319 -479 950z" />
<glyph unicode=")" horiz-adv-x="800" d="M20 -231q176 158 252 339t76 451q0 266 -76.5 448.5t-251.5 340.5l164 159q236 -157 358 -396t122 -552q0 -629 -480 -950z" />
<glyph unicode="*" horiz-adv-x="1204" d="M80 1024l76 236l264 -93l84 -47l-19 94l-8 281h248l-6 -281l-19 -94l84 47l267 93l75 -236l-270 -80l-94 -10l69 -66l170 -223l-200 -145l-160 231l-39 86l-41 -86l-160 -231l-198 145l170 223l69 66l-96 10z" />
<glyph unicode="+" d="M104 541v250h377v415h277v-415h375v-250h-375v-418h-277v418h-377z" />
<glyph unicode="," horiz-adv-x="593" d="M74 -215q96 37 162.5 92t91.5 127l-9 6q-23 -23 -63 -22q-68 0 -119 45t-51 127q0 92 56.5 142t148.5 50q108 0 164.5 -73.5t56.5 -190.5q0 -135 -72.5 -243.5t-212.5 -168.5z" />
<glyph unicode="-" horiz-adv-x="1081" d="M166 406v284h749v-284h-749z" />
<glyph unicode="." horiz-adv-x="593" d="M92 166q0 88 54.5 137t150.5 49t150.5 -49t54.5 -137q0 -86 -54.5 -135t-150.5 -49t-150.5 49t-54.5 135z" />
<glyph unicode="/" horiz-adv-x="958" d="M31 -143l573 1601h324l-574 -1601h-323z" />
<glyph unicode="0" horiz-adv-x="1318" d="M98 676q0 696 561 696t562 -696q0 -696 -562 -696q-561 0 -561 696zM446 676q0 -225 50.5 -323.5t162.5 -98.5q113 0 163 98.5t50 323.5t-50 323.5t-163 98.5t-163 -98.5t-50 -323.5z" />
<glyph unicode="1" horiz-adv-x="899" d="M55 1124q104 12 232.5 83t179.5 145h281v-1352h-340v1006q-158 -143 -320 -172z" />
<glyph unicode="2" horiz-adv-x="1220" d="M80 911q4 219 150.5 340t379.5 121q170 0 285 -62.5t170 -160.5t55 -211q0 -190 -142 -350t-431 -326v-2q135 8 272 8h318v-268h-1014v225q342 213 494.5 378t152.5 310q0 82 -47 132.5t-135 50.5q-96 0 -150.5 -71t-56.5 -206z" />
<glyph unicode="3" horiz-adv-x="1214" d="M63 315l320 138q10 -106 62.5 -153.5t146.5 -47.5q88 0 138 42t50 118q0 80 -48 114.5t-152 34.5h-76v223h59q98 0 143.5 40t45.5 122q0 74 -42 114t-118 40q-172 0 -189 -182l-309 104q33 180 171 265t347 85q228 0 355 -102.5t127 -276.5q0 -104 -44 -174.5 t-104.5 -103.5t-105.5 -33v-6q57 0 121.5 -30t111.5 -98.5t47 -178.5q0 -115 -67.5 -203t-186 -137t-270.5 -49q-217 0 -347 79.5t-186 255.5z" />
<glyph unicode="4" horiz-adv-x="1323" d="M68 297v166l579 889h412v-813h207v-242h-207v-297h-311v297h-680zM395 539h353v360l8 221h-4q-37 -92 -119 -221z" />
<glyph unicode="5" horiz-adv-x="1193" d="M61 250l310 176q20 -90 69 -135t152 -45q96 0 151.5 49t55.5 143q-2 92 -53.5 141.5t-153.5 49.5q-147 0 -215 -80l-266 39l86 764h843v-273h-587l-31 -254q-6 -35 -10 -49h2q41 45 114.5 70.5t163.5 25.5q131 0 226.5 -52t146.5 -145t51 -212q0 -160 -69.5 -268.5 t-188.5 -161.5t-268 -53q-184 0 -313.5 63t-215.5 207z" />
<glyph unicode="6" horiz-adv-x="1261" d="M102 676q0 231 77 388t210 232.5t307 75.5q369 0 471 -299l-288 -135q-43 156 -205 156q-115 0 -186.5 -107.5t-71.5 -290.5v-32h4q35 86 121 132t207 46q125 0 225 -52.5t156.5 -147.5t56.5 -220q0 -205 -137.5 -323.5t-382.5 -118.5q-272 0 -418 178t-146 518zM479 424 q0 -84 52.5 -132t140.5 -48q92 0 142 47t50 133t-50 133t-142 47q-88 0 -140.5 -48t-52.5 -132z" />
<glyph unicode="7" horiz-adv-x="1257" d="M86 1075v277h1112v-250q-242 -233 -342 -501.5t-100 -600.5h-348q0 309 107.5 574.5t338.5 500.5h-768z" />
<glyph unicode="8" horiz-adv-x="1284" d="M92 358q0 123 66.5 207t191.5 125v2q-102 39 -158.5 116t-56.5 181q0 176 136.5 277.5t369.5 101.5q236 0 372 -101.5t136 -277.5q0 -104 -56.5 -181t-158.5 -116v-2q125 -41 191.5 -125t66.5 -207q0 -176 -146.5 -277t-404.5 -101q-254 0 -401.5 101t-147.5 277z M434 403q0 -78 55.5 -122.5t151.5 -44.5q98 0 153.5 45t55.5 122q0 80 -55.5 124t-153.5 44q-96 0 -151.5 -44t-55.5 -124zM463 956q0 -72 48 -113.5t130 -41.5q84 0 132 42t48 113q0 74 -48 115t-132 41t-131 -41t-47 -115z" />
<glyph unicode="9" horiz-adv-x="1259" d="M84 913q0 215 138 337t388 122q271 0 415 -180t144 -524q0 -352 -148.5 -520t-424.5 -168q-186 0 -310 71.5t-186 222.5l316 125q18 -76 60 -114.5t126 -38.5q250 0 250 383v33h-6q-27 -86 -117 -132.5t-207 -46.5q-121 0 -221 53.5t-158.5 151.5t-58.5 225zM408 915 q0 -86 50 -133t142 -47q90 0 141.5 48t51.5 132t-51.5 132.5t-141.5 48.5q-92 0 -142 -47.5t-50 -133.5z" />
<glyph unicode=":" horiz-adv-x="618" d="M104 166q0 88 54.5 137t150.5 49t150.5 -49t54.5 -137q0 -86 -54.5 -135t-150.5 -49t-150.5 49t-54.5 135zM104 858q0 88 54.5 137t150.5 49t150.5 -49t54.5 -137q0 -86 -54.5 -135t-150.5 -49t-150.5 49t-54.5 135z" />
<glyph unicode=";" horiz-adv-x="618" d="M88 -215q96 37 162.5 92t91.5 127l-8 6q-23 -23 -64 -22q-68 0 -119 45t-51 127q0 92 56.5 142t148.5 50q109 0 165 -73.5t56 -190.5q0 -135 -72.5 -243.5t-211.5 -168.5zM106 860q0 86 54.5 135t150.5 49t150.5 -49t54.5 -135q0 -88 -54 -136t-151 -48q-96 0 -150.5 48 t-54.5 136z" />
<glyph unicode="&#x3c;" d="M129 457v301l1004 446v-330l-760 -266l760 -268v-330z" />
<glyph unicode="=" d="M133 307v240h971v-240h-971zM133 750v239h971v-239h-971z" />
<glyph unicode="&#x3e;" d="M104 10v330l758 268l-758 266v330l1004 -446v-301z" />
<glyph unicode="?" horiz-adv-x="1243" d="M66 1012q25 164 163 262t402 98q241 0 383.5 -92t142.5 -279q0 -344 -389 -387l-20 -176h-299l-19 312q188 14 270 64t82 134q0 68 -44 105t-132 37q-90 0 -143 -52.5t-62 -154.5zM401 158q0 82 52.5 127t146.5 45q92 0 144.5 -45t52.5 -127t-52.5 -128t-144.5 -46 q-94 0 -146.5 46t-52.5 128z" />
<glyph unicode="@" horiz-adv-x="1937" d="M100 457q0 264 116 467.5t322.5 315.5t471.5 112q254 0 439 -98.5t284.5 -283t99.5 -438.5q0 -176 -59.5 -296.5t-157.5 -178t-213 -57.5q-106 0 -178 46t-107 128q-113 -170 -315 -170q-152 0 -242 107.5t-90 279.5q0 182 63.5 309t171 191.5t238.5 64.5 q100 0 156.5 -47t73.5 -110l43 139h249l-92 -588q-4 -23 -4 -59q0 -59 25.5 -87t85.5 -28q86 0 139 92t53 264q0 322 -176 494t-487 172q-219 0 -386 -89t-258.5 -257t-91.5 -395q0 -215 91.5 -369t243 -233.5t329.5 -79.5q156 0 246 29.5t166 86.5l88 -122 q-102 -72 -213 -109t-293 -37q-240 0 -429.5 100.5t-296 289t-106.5 444.5zM770 432q0 -92 36 -141t105 -49q63 0 112.5 40t59.5 113l23 166q2 14 2 41q0 129 -125 129q-92 0 -152.5 -81t-60.5 -218z" />
<glyph unicode="A" horiz-adv-x="1386" d="M8 0l475 1352h422l473 -1352h-362l-92 305h-467l-95 -305h-354zM530 545h320l-98 323l-60 213h-4l-55 -211z" />
<glyph unicode="B" horiz-adv-x="1400" d="M150 0v1352h657q487 -2 487 -365q0 -119 -69.5 -200.5t-204.5 -102.5v-2q152 -20 230.5 -105t78.5 -212q0 -176 -125 -270.5t-366 -94.5h-688zM489 248h289q94 0 142.5 39t48.5 112q0 72 -48.5 110t-142.5 38h-289v-299zM489 799h254q190 0 191 147q0 147 -191 148h-254 v-295z" />
<glyph unicode="C" horiz-adv-x="1394" d="M92 676q0 215 80 372.5t229.5 240.5t352.5 83q221 0 374.5 -93t202.5 -280l-309 -125q-29 123 -88.5 172.5t-167.5 49.5q-150 0 -231.5 -107.5t-81.5 -312.5t78.5 -312.5t228.5 -107.5q113 0 178.5 53t89.5 168l320 -90q-58 -205 -213.5 -306t-378.5 -101 q-205 0 -354.5 82.5t-229.5 239.5t-80 374z" />
<glyph unicode="D" horiz-adv-x="1470" d="M150 0v1352h573q317 0 486 -175.5t169 -500.5q0 -326 -169 -501t-486 -175h-573zM502 266h186q170 0 250 102.5t80 307.5t-80 307t-250 102h-186v-819z" />
<glyph unicode="E" horiz-adv-x="1292" d="M150 0v1352h1052v-273h-700v-274h557v-256h-557v-277h727v-272h-1079z" />
<glyph unicode="F" horiz-adv-x="1253" d="M150 0v1352h1050v-273h-698v-286h557v-273h-557v-520h-352z" />
<glyph unicode="G" horiz-adv-x="1480" d="M90 674q0 217 82 373.5t233.5 240.5t358.5 84q231 0 372.5 -82t223.5 -264l-326 -129q-25 100 -92.5 149.5t-167.5 49.5q-156 0 -238.5 -106.5t-82.5 -313.5q0 -426 331 -426q125 0 202 57.5t77 165.5v21h-336v237h635v-731h-246l-10 160q-117 -180 -387 -180 q-184 0 -326.5 80.5t-222.5 237.5t-80 376z" />
<glyph unicode="H" horiz-adv-x="1519" d="M150 0v1352h352v-535h516v535h352v-1352h-352v545h-516v-545h-352z" />
<glyph unicode="I" horiz-adv-x="651" d="M150 0v1352h352v-1352h-352z" />
<glyph unicode="J" horiz-adv-x="1271" d="M61 408q0 59 13 127l348 61q-10 -78 -10 -127q0 -113 44 -163t136 -50q109 0 155 71.5t46 229.5v795h352v-832q0 -256 -148.5 -398t-421.5 -142q-254 0 -384 114.5t-130 313.5z" />
<glyph unicode="K" horiz-adv-x="1419" d="M150 0v1352h352v-600l483 600h391l-458 -549l483 -803h-400l-335 580l-164 -199v-381h-352z" />
<glyph unicode="L" horiz-adv-x="1232" d="M150 0v1352h352v-1080h678v-272h-1030z" />
<glyph unicode="M" horiz-adv-x="1863" d="M150 0v1352h501l213 -688l76 -287h4l78 285l211 690h481v-1352h-311v621l10 415h-4l-334 -1036h-284l-334 1036h-4l10 -415v-621h-313z" />
<glyph unicode="N" horiz-adv-x="1517" d="M150 0v1352h391l420 -731l102 -205h2l-8 254v682h311v-1352h-391l-420 731l-102 205h-2l8 -254v-682h-311z" />
<glyph unicode="O" horiz-adv-x="1509" d="M92 676q0 217 80 373.5t229.5 239.5t354.5 83t353 -83t228 -239.5t80 -373.5t-80 -374t-228 -239.5t-353 -82.5t-354.5 82.5t-229.5 239.5t-80 374zM453 676q0 -207 77.5 -313.5t225.5 -106.5q147 0 224 106.5t77 313.5t-77 313.5t-224 106.5q-148 0 -225.5 -106.5 t-77.5 -313.5z" />
<glyph unicode="P" horiz-adv-x="1368" d="M150 0v1352h620q252 0 387 -116t135 -333q0 -207 -135 -320.5t-387 -113.5h-268v-469h-352zM502 727h213q114 0 168.5 44t54.5 136q0 90 -54.5 134t-168.5 44h-213v-358z" />
<glyph unicode="Q" horiz-adv-x="1509" d="M92 676q0 217 80 373.5t229.5 239.5t354.5 83t353 -83t228 -239.5t80 -373.5q0 -297 -146.5 -477.5t-406.5 -212.5q8 -72 60.5 -100.5t146.5 -28.5q166 0 252 80l84 -256q-53 -47 -143 -73t-205 -26q-203 0 -313.5 97.5t-110.5 267.5l2 41q-256 35 -400.5 215t-144.5 473 zM453 676q0 -207 77.5 -313.5t225.5 -106.5q147 0 224 106.5t77 313.5t-77 313.5t-224 106.5t-225 -106.5t-78 -313.5z" />
<glyph unicode="R" horiz-adv-x="1411" d="M150 0v1352h645q246 0 378 -111t132 -319q0 -147 -68 -245.5t-197 -146.5l344 -530h-389l-288 494h-211v-494h-346zM496 743h239q113 0 164 41t51 131q0 88 -51 129t-164 41h-239v-342z" />
<glyph unicode="S" horiz-adv-x="1318" d="M57 209l181 246q80 -111 180 -156t241 -45q113 0 169.5 31.5t56.5 91.5q0 47 -60.5 76.5t-201.5 56.5q-174 35 -288 83t-176.5 130t-62.5 209t68.5 227.5t201 156.5t312.5 56q192 0 328.5 -57.5t253.5 -186.5l-199 -229q-68 102 -159 150.5t-218 48.5q-106 0 -163.5 -37 t-57.5 -98q0 -51 60.5 -83t205.5 -59q281 -51 400.5 -149.5t119.5 -276.5q0 -129 -73.5 -223t-203.5 -143t-294 -49q-229 0 -372.5 56t-248.5 173z" />
<glyph unicode="T" horiz-adv-x="1337" d="M51 1079v273h1235v-273h-440v-1079h-352v1079h-443z" />
<glyph unicode="U" horiz-adv-x="1460" d="M125 551v801h354v-807q0 -145 61.5 -217t188.5 -72q254 0 254 289v807h350v-801q0 -285 -151.5 -428t-452.5 -143q-299 0 -451.5 143t-152.5 428z" />
<glyph unicode="V" horiz-adv-x="1398" d="M12 1352h371l248 -817l74 -267l71 262l252 822h358l-479 -1352h-413z" />
<glyph unicode="W" horiz-adv-x="2041" d="M20 1352h379l224 -1076l243 1076h320l248 -1073l223 1073h364l-391 -1352h-383l-160 655l-61 330h-4l-59 -330l-158 -655h-395z" />
<glyph unicode="X" horiz-adv-x="1357" d="M23 0l458 680l-432 672h416l233 -430l234 430h381l-432 -662l460 -690h-419l-254 444l-246 -444h-399z" />
<glyph unicode="Y" horiz-adv-x="1345" d="M18 1352h365l190 -371l101 -225l102 225l191 371h358l-477 -858v-494h-352v494z" />
<glyph unicode="Z" horiz-adv-x="1298" d="M76 0v254l755 831h-741v267h1120v-254l-751 -832h776v-266h-1159z" />
<glyph unicode="[" horiz-adv-x="800" d="M174 -344v1804h574v-243h-273v-1317h273v-244h-574z" />
<glyph unicode="\" horiz-adv-x="958" d="M31 1458h323l574 -1601h-324z" />
<glyph unicode="]" horiz-adv-x="800" d="M53 -100h273v1317h-273v243h574v-1804h-574v244z" />
<glyph unicode="^" horiz-adv-x="1253" d="M51 727l428 756h295l430 -756h-307l-270 533l-269 -533h-307z" />
<glyph unicode="_" horiz-adv-x="1103" d="M0 -135h1104v-277h-1104v277z" />
<glyph unicode="`" horiz-adv-x="1024" d="M188 1511h324l137 -354h-254z" />
<glyph unicode="a" horiz-adv-x="1189" d="M66 236q0 131 93 211.5t306 123.5l231 45v37q0 70 -39 111t-106 41q-78 0 -127 -37t-64 -121l-282 82q27 150 147.5 232.5t325.5 82.5q240 0 364.5 -98t124.5 -295v-372q0 -80 74 -80q39 0 64 8l-27 -195q-57 -32 -134 -32h-5q-221 0 -264 157q-91 -157 -362 -157h-3 q-154 0 -235.5 65.5t-81.5 190.5zM410 293q0 -43 26.5 -65.5t73.5 -22.5q72 0 129 40t57 105v88l-166 -39q-66 -16 -93 -39.5t-27 -66.5z" />
<glyph unicode="b" horiz-adv-x="1286" d="M125 0v1458h348v-606q43 90 122 141t187 51q197 0 309.5 -141t112.5 -395q0 -250 -110.5 -389t-311.5 -139q-121 0 -210 64.5t-132 172.5l-10 -217h-305zM473 502q0 -131 50 -198.5t139 -67.5q92 0 142 67.5t50 208.5t-50 208.5t-142 67.5q-90 0 -139.5 -69.5 t-49.5 -196.5v-20z" />
<glyph unicode="c" horiz-adv-x="1169" d="M76 512q0 252 142 392t396 140q232 0 348.5 -88t145.5 -229l-324 -106q-20 176 -157 176q-203 0 -203 -289q0 -281 203 -281q145 0 170 166l313 -100q-23 -139 -148.5 -226t-332.5 -87q-266 0 -409.5 139t-143.5 393z" />
<glyph unicode="d" horiz-adv-x="1286" d="M82 508q0 254 112.5 395t311.5 141q109 0 186.5 -51t122.5 -141v606h348v-1458h-313l-12 195q-45 -100 -132.5 -157.5t-201.5 -57.5q-199 0 -310.5 139t-111.5 389zM432 512q0 -141 50 -208.5t143 -67.5q84 0 134 60t56 175v82q-6 113 -56 174t-134 61 q-92 0 -142.5 -67.5t-50.5 -208.5z" />
<glyph unicode="e" horiz-adv-x="1191" d="M76 512q0 254 139 393t395 139q248 0 380 -136t132 -382q0 -69 -10 -114h-698q16 -96 70.5 -141.5t144.5 -45.5q76 0 124 29t64 84l283 -90q-43 -131 -167 -199.5t-304 -68.5q-268 0 -410.5 139t-142.5 393zM412 600h385q-25 201 -189 201q-165 0 -196 -201z" />
<glyph unicode="f" horiz-adv-x="849" d="M31 776v248h164v94q0 184 114.5 276.5t298.5 92.5q160 0 236 -60l-35 -217q-45 33 -117 33q-170 0 -170 -147v-72h312v-248h-291v-776h-348v776h-164z" />
<glyph unicode="g" horiz-adv-x="1159" d="M47 -199q0 68 47 119t144 74q-158 68 -158 213q0 72 45 127t123 82q-168 90 -168 280q0 166 131 257t369 91q111 0 204 -22q20 123 92 200.5t199 77.5l33 -2l39 -231q-41 4 -57 4q-70 0 -116 -24.5t-67 -67.5q172 -90 172 -283q0 -166 -131 -256t-368 -90q-111 0 -197 19 q-63 -16 -64 -72q0 -70 107 -70h348q178 0 275.5 -77.5t97.5 -229.5q0 -174 -154.5 -267t-421.5 -93q-268 0 -396 63.5t-128 177.5zM311 -121q0 -94 285 -94q135 0 205.5 27.5t70.5 72.5q0 33 -28.5 49.5t-95.5 16.5h-281q-84 0 -120 -17.5t-36 -54.5zM428 696 q0 -68 42 -107.5t110 -39.5t109.5 40t41.5 107q0 68 -42 109t-109 41q-68 0 -110 -41t-42 -109z" />
<glyph unicode="h" horiz-adv-x="1269" d="M125 0v1458h348v-620q45 102 128 154t196 52q161 0 257.5 -94t96.5 -268v-682h-348v586q0 194 -145 194h-1q-82 0 -133 -59t-51 -182v-539h-348z" />
<glyph unicode="i" horiz-adv-x="595" d="M96 1309q0 88 48.5 128t154.5 40t154.5 -40t48.5 -128q0 -86 -48 -126t-155 -40q-106 0 -154.5 40t-48.5 126zM125 0v1024h348v-1024h-348z" />
<glyph unicode="j" horiz-adv-x="593" d="M-193 -375l50 225q46 -40 125 -40h4q68 0 103.5 37.5t35.5 125.5v1051h348v-1081q0 -201 -102.5 -292t-294.5 -91q-162 0 -269 65zM96 1309q0 86 48.5 127t152.5 41t154.5 -41t50.5 -127q0 -84 -49.5 -125t-155.5 -41q-104 0 -152.5 41t-48.5 125z" />
<glyph unicode="k" horiz-adv-x="1273" d="M125 0v1458h348v-864l391 430h385l-377 -401l400 -623h-385l-248 420l-166 -184v-236h-348z" />
<glyph unicode="l" horiz-adv-x="669" d="M121 303v1155h348v-1104q0 -70 20.5 -98.5t73.5 -28.5q49 0 105 19l-23 -215q-37 -23 -96.5 -37t-116.5 -14q-164 0 -237.5 76.5t-73.5 246.5z" />
<glyph unicode="m" horiz-adv-x="1927" d="M125 0v1024h311l10 -197q49 106 137.5 161.5t207.5 55.5q117 0 201.5 -53t121.5 -153q49 100 140.5 153t203.5 53q156 0 253 -94t97 -268v-682h-348v602q0 176 -139 176q-82 0 -131 -59.5t-49 -171.5v-547h-348v602q0 176 -140 176q-78 0 -129 -59.5t-51 -177.5v-541 h-348z" />
<glyph unicode="n" horiz-adv-x="1269" d="M125 0v1024h311l10 -197q49 109 139.5 163t211.5 54q161 0 257.5 -94t96.5 -268v-682h-348v586q0 104 -38 148t-108 44q-82 0 -133 -58t-51 -179v-541h-348z" />
<glyph unicode="o" horiz-adv-x="1232" d="M76 512q0 252 142 392t398 140t398.5 -140t142.5 -392t-142.5 -392t-398.5 -140t-398 140t-142 392zM424 512q0 -150 47 -217.5t145 -67.5t145.5 67.5t47.5 217.5t-47 217.5t-146 67.5q-98 0 -145 -67.5t-47 -217.5z" />
<glyph unicode="p" horiz-adv-x="1286" d="M125 -430v1454h305l10 -217q43 109 132.5 173t209.5 64q201 0 311.5 -139t110.5 -389q0 -254 -112.5 -395t-309.5 -141q-109 0 -187.5 51t-121.5 141v-602h-348zM473 502q0 -127 49 -196.5t140 -69.5q92 0 142 67.5t50 208.5t-50 208.5t-142 67.5q-88 0 -138.5 -67.5 t-50.5 -198.5v-20z" />
<glyph unicode="q" horiz-adv-x="1288" d="M84 516q0 250 110.5 389t309.5 139q121 0 210 -63t132 -172l12 215h305v-1454h-348v600q-45 -90 -124 -140t-185 -50q-199 0 -310.5 141t-111.5 395zM434 512q0 -276 193 -276q90 0 139 69.5t49 196.5v20q0 129 -50 197.5t-138 68.5q-193 0 -193 -276z" />
<glyph unicode="r" horiz-adv-x="880" d="M125 0v1024h307l14 -221q37 117 116 179t196 62h6q65 0 104 -22l-37 -295q-20 12 -55 21.5t-74 9.5q-98 0 -163.5 -62.5t-65.5 -179.5v-516h-348z" />
<glyph unicode="s" horiz-adv-x="1091" d="M49 160l180 196q88 -145 303 -145q72 0 113 19.5t41 52.5q0 29 -42 50t-144 42q-229 45 -326.5 122.5t-97.5 207.5q0 88 55 165.5t167 125.5t271 48q176 0 288 -48t181 -144l-180 -176q-49 72 -116.5 104.5t-161.5 32.5q-74 0 -115 -22.5t-41 -55.5q0 -31 42 -52t146 -42 q225 -39 324.5 -115.5t99.5 -210.5q0 -150 -125 -242.5t-362 -92.5q-353 0 -500 180z" />
<glyph unicode="t" horiz-adv-x="890" d="M27 776v248h176v229l348 97v-326h307v-248h-307v-411q0 -137 135 -138q84 0 148 45l34 -215q-51 -35 -130 -56t-158 -21q-182 0 -278.5 77.5t-98.5 249.5v469h-176z" />
<glyph unicode="u" horiz-adv-x="1269" d="M119 340v684h348v-596q0 -100 35 -141t106 -41q86 0 137.5 58t51.5 177v543h348v-1024h-311l-11 190q-96 -210 -352 -210h-2q-164 0 -257 87t-93 273z" />
<glyph unicode="v" horiz-adv-x="1148" d="M-2 1024h367l210 -803l216 803h360l-369 -1024h-415z" />
<glyph unicode="w" horiz-adv-x="1859" d="M18 1024h367l172 -772l201 772h344l198 -772l175 772h364l-309 -1024h-418l-184 657l-183 -657h-415z" />
<glyph unicode="x" horiz-adv-x="1206" d="M10 0l369 518l-354 506h395l188 -342l193 342h385l-357 -508l365 -516h-393l-201 356l-205 -356h-385z" />
<glyph unicode="y" horiz-adv-x="1167" d="M6 -365l74 234q33 -31 73 -42t103 -11t100 21.5t60 76.5l24 63l-118 279l-306 768h383l158 -584l49 -217l56 226l157 575h348l-374 -1024q-57 -164 -125 -260t-160 -138t-223 -42q-174 0 -279 75z" />
<glyph unicode="z" horiz-adv-x="1054" d="M74 0v213l405 463l111 108l-164 -4h-350v244h899v-213l-404 -459l-110 -112l180 4h352v-244h-919z" />
<glyph unicode="{" horiz-adv-x="860" d="M84 444v226q125 0 177 49t52 164v276q0 127 48.5 203t155 110.5t284.5 34.5l10 -221q-115 0 -167 -39t-52 -127v-309q0 -100 -51.5 -161.5t-153.5 -92.5q102 -29 153.5 -90t51.5 -162v-307q0 -88 52 -128t167 -40l-10 -221q-178 0 -284.5 33.5t-155 109.5t-48.5 205v274 q0 115 -52 164t-177 49z" />
<glyph unicode="|" horiz-adv-x="655" d="M174 -344v1804h307v-1804h-307z" />
<glyph unicode="}" horiz-adv-x="860" d="M49 -170q115 0 167 40t52 128v307q0 100 52.5 161.5t154.5 90.5q-104 31 -155.5 91.5t-51.5 162.5v309q0 88 -52 127t-167 39l10 221q178 0 285 -34.5t155 -110.5t48 -203v-276q0 -115 52 -164t177 -49v-226q-125 0 -177 -49t-52 -164v-274q0 -129 -48 -205 t-154.5 -109.5t-285.5 -33.5z" />
<glyph unicode="~" horiz-adv-x="1222" d="M88 483q10 195 93 296.5t237 101.5q74 0 125 -21.5t108 -60.5q37 -25 61.5 -37t53.5 -12q43 0 65.5 29.5t32.5 90.5h271q-11 -196 -94 -296.5t-236 -100.5q-74 0 -125 21.5t-107 60.5q-37 25 -62.5 37t-53.5 12q-43 0 -65.5 -29.5t-33.5 -91.5h-270z" />
<glyph unicode="&#xa1;" horiz-adv-x="610" d="M109 870q0 80 52 125t144 45t145.5 -45t53.5 -125q0 -82 -53.5 -127t-145.5 -45t-144 45t-52 127zM125 109l39 475h285l38 -475v-437h-362v437z" />
<glyph unicode="&#xa2;" horiz-adv-x="1177" d="M92 512q0 229 118 366.5t333 161.5v189h180v-189q186 -16 281.5 -101t113.5 -212l-260 -94q-25 137 -135 180v-604q115 35 143 174l256 -88q-14 -129 -117.5 -213t-281.5 -98v-189h-180v191q-219 27 -335 163t-116 363zM395 508q1 -248 148 -295v600q-74 -27 -111 -100.5 t-37 -204.5z" />
<glyph unicode="&#xa3;" horiz-adv-x="1277" d="M70 170q0 88 74.5 139t185.5 51q76 0 151 -14q-4 94 -45 178h-327v203h186q-49 72 -68.5 127t-19.5 117q0 111 56 202t167 145t264 54q403 0 484 -358l-283 -131q-29 129 -77 183t-134 54q-78 0 -125 -42t-47 -111q0 -43 19.5 -90.5t68.5 -118.5q8 -10 21 -31h399v-203 h-305q10 -55 10 -104q0 -88 -27 -160q47 -23 87 -34t85 -11q72 0 104 41t30 129l210 -25q7 -36 7 -73q0 -133 -76 -220t-211 -87q-94 0 -168 31.5t-160 90.5q-113 -123 -289 -122q-109 0 -178 51t-69 139zM244 170q0 -27 22.5 -43t59.5 -16q96 0 133 84q-66 33 -133 32 q-82 0 -82 -57z" />
<glyph unicode="&#xa4;" horiz-adv-x="1323" d="M74 287l200 178q-49 92 -49 211q0 117 49 209l-200 176l200 201l183 -205q92 43 207 43q117 0 204 -43l181 205l200 -201l-198 -180q47 -90 47 -205q0 -121 -49 -211l200 -178l-200 -199l-183 203q-88 -43 -202 -43q-113 0 -209 45l-181 -205zM492 676q0 -82 47 -131 t125 -49q75 0 122.5 49t47.5 131q0 80 -47.5 129t-122.5 49q-78 0 -125 -49t-47 -129z" />
<glyph unicode="&#xa5;" horiz-adv-x="1388" d="M39 1352h360l205 -422l88 -209h4l90 211l203 420h361l-459 -736l123 9h241v-123h-393v-135h393v-119h-393v-248h-336v248h-391v119h391v135h-391v123h240l123 -9z" />
<glyph unicode="&#xa6;" horiz-adv-x="557" d="M125 -344v778h307v-778h-307zM125 682v778h307v-778h-307z" />
<glyph unicode="&#xa7;" horiz-adv-x="1275" d="M49 561q0 190 154 297q-33 63 -33 148q0 109 57.5 191.5t167 128.5t256.5 46q178 0 283.5 -48t187.5 -148l-178 -166q-55 72 -120.5 103.5t-172.5 31.5q-106 0 -163.5 -29t-57.5 -78q0 -53 60.5 -82.5t218.5 -46.5q274 -27 397 -108.5t123 -231.5q0 -186 -154 -299 q33 -59 33 -147q0 -162 -127 -255t-348 -93q-176 0 -285.5 48t-191.5 148l180 168q51 -74 117.5 -105.5t175.5 -31.5q111 0 165 21.5t54 68.5q0 53 -60.5 83t-218.5 46q-274 27 -397 109t-123 231zM297 612q0 -55 62.5 -83.5t224.5 -45.5q209 -23 315 -67q82 39 82 102 q0 53 -62.5 83t-224.5 46q-197 18 -317 68q-80 -39 -80 -103z" />
<glyph unicode="&#xa8;" horiz-adv-x="1024" d="M115 1296q0 74 46 116t126 42q82 0 129 -42t47 -116t-47 -115.5t-129 -41.5q-80 0 -126 42t-46 115zM565 1296q0 74 46 116t126 42q82 0 129 -42t47 -116t-47 -115.5t-129 -41.5q-80 0 -126 42t-46 115z" />
<glyph unicode="&#xa9;" horiz-adv-x="1581" d="M86 676q0 209 87 366.5t247 243.5t371 86q210 0 370 -86t247 -243.5t87 -366.5t-87 -366.5t-247 -243.5t-370 -86q-211 0 -371 86t-247 243.5t-87 366.5zM268 676q0 -158 64.5 -276.5t182.5 -183t276 -64.5t275.5 64.5t182 183t64.5 276.5t-64.5 276.5t-182.5 183 t-275 64.5q-158 0 -276 -64.5t-182.5 -183t-64.5 -276.5zM418 674q0 180 98 285.5t266 105.5q291 0 369 -225l-197 -97q-20 45 -55 64.5t-94 19.5q-70 0 -106.5 -38.5t-36.5 -114.5q0 -74 36.5 -114t106.5 -40q63 0 100 20.5t58 71.5l186 -92q-51 -127 -133 -182t-234 -55 q-168 0 -266 105.5t-98 285.5z" />
<glyph unicode="&#xaa;" horiz-adv-x="897" d="M47 799q0 90 65.5 143t213.5 84l163 33v24q0 47 -25.5 73t-74.5 26t-79.5 -23.5t-43.5 -81.5l-209 49q16 109 104.5 169.5t241.5 60.5q344 0 345 -277v-235q0 -61 55 -62q29 0 41 6l-19 -137q-53 -25 -114 -24q-68 0 -115 29.5t-64 84.5q-35 -53 -101 -83.5t-159 -30.5 q-111 0 -168 44t-57 128zM70 309v183h747v-183h-747zM295 842q0 -61 78 -62q47 0 81.5 25.5t34.5 73.5v73l-88 -20q-106 -25 -106 -90z" />
<glyph unicode="&#xab;" horiz-adv-x="1198" d="M72 543l256 401h303l-248 -401l248 -402h-303zM568 543l256 401h303l-248 -401l248 -402h-303z" />
<glyph unicode="&#xac;" d="M123 541v250h991v-592h-280v342h-711z" />
<glyph unicode="&#xad;" horiz-adv-x="1081" d="M166 406v284h749v-284h-749z" />
<glyph unicode="&#xae;" horiz-adv-x="1581" d="M86 676q0 209 87 366.5t247 243.5t371 86q210 0 370 -86t247 -243.5t87 -366.5t-87 -366.5t-247 -243.5t-370 -86q-211 0 -371 86t-247 243.5t-87 366.5zM268 676q0 -158 64.5 -276.5t182.5 -183t276 -64.5q157 0 275 64.5t182.5 183t64.5 276.5t-64.5 276.5t-182.5 183 t-275 64.5q-158 0 -276 -64.5t-182.5 -183t-64.5 -276.5zM498 309v746h360q115 0 191.5 -68.5t76.5 -175.5q0 -84 -43 -142.5t-118 -82.5l178 -277h-248l-133 256h-57v-256h-207zM705 707h104q106 0 106 88t-106 88h-104v-176z" />
<glyph unicode="&#xaf;" horiz-adv-x="1024" d="M131 1165v215h762v-215h-762z" />
<glyph unicode="&#xb0;" horiz-adv-x="1013" d="M94 991q0 174 111.5 277.5t302.5 103.5q188 0 301 -103.5t113 -277.5t-113 -277.5t-301 -103.5q-191 0 -302.5 103.5t-111.5 277.5zM346 993q0 -72 45 -115.5t117 -43.5t116 45t44 114q0 70 -45 114t-115 44q-72 0 -117 -44t-45 -114z" />
<glyph unicode="&#xb1;" d="M104 2v234h1029v-234h-1029zM104 737v240h390v358h251v-358h388v-240h-388v-358h-251v358h-390z" />
<glyph unicode="&#xb2;" horiz-adv-x="802" d="M31 1221q2 135 99 209.5t261 74.5q180 0 268.5 -78.5t88.5 -187.5q0 -152 -199 -285q-74 -47 -158 -77v-5q86 8 187 9h180v-199h-699v158q133 76 183 106q127 86 183 151.5t56 121.5q0 43 -24.5 67.5t-71.5 24.5q-53 0 -82 -40t-29 -116z" />
<glyph unicode="&#xb3;" horiz-adv-x="776" d="M18 877l236 86q8 -111 121 -111q47 0 74.5 23.5t27.5 64.5q0 74 -102 74h-47v133h39q96 0 96 82q0 41 -23.5 62.5t-66.5 21.5q-96 0 -109 -107l-225 76q18 113 112.5 168t233.5 55q158 0 242 -60.5t84 -170.5q0 -82 -47.5 -130t-124.5 -52v-7q88 -2 138 -47t50 -127 q0 -111 -90 -176t-244 -65q-152 0 -245 49t-130 158z" />
<glyph unicode="&#xb4;" horiz-adv-x="1024" d="M375 1157l137 354h324l-207 -354h-254z" />
<glyph unicode="&#xb5;" horiz-adv-x="1263" d="M119 -430v1454h348v-596q0 -100 36 -141t107 -41q82 0 130 50t57 148v580h348v-1024h-307l-13 188q-86 -209 -313 -208q-31 0 -45 2v-412h-348z" />
<glyph unicode="&#xb6;" horiz-adv-x="1515" d="M70 911q0 217 141 329t424 112h745v-1557h-282v1290h-221v-1290h-285v678q-254 2 -388 113.5t-134 324.5z" />
<glyph unicode="&#xb7;" horiz-adv-x="561" d="M76 723q0 88 54 136t151 48q96 0 150 -48t54 -136q0 -86 -54 -135t-150 -49t-150.5 49t-54.5 135z" />
<glyph unicode="&#xb8;" horiz-adv-x="1024" d="M254 -358l80 161q57 -57 147 -57q51 0 82 26.5t31 73.5q0 55 -47 92t-174 66l86 72q164 -23 253 -97.5t89 -177.5q0 -117 -80 -179t-213 -62q-166 0 -254 82z" />
<glyph unicode="&#xb9;" horiz-adv-x="610" d="M39 1157v207q68 10 154 50t118 81h213v-813h-252v442q0 53 7 133q-121 -92 -240 -100z" />
<glyph unicode="&#xba;" horiz-adv-x="864" d="M61 991q0 172 98.5 268.5t272.5 96.5q176 0 274.5 -96.5t98.5 -268.5t-98.5 -268t-274.5 -96q-174 0 -272.5 96t-98.5 268zM74 309v183h717v-183h-717zM319 991q0 -102 27 -149t86 -47q60 0 86.5 47t26.5 149t-26.5 149.5t-86.5 47.5q-59 0 -86 -47t-27 -150z" />
<glyph unicode="&#xbb;" horiz-adv-x="1198" d="M72 141l247 402l-247 401h303l256 -401l-256 -402h-303zM567 141l248 402l-248 401h303l256 -401l-256 -402h-303z" />
<glyph unicode="&#xbc;" horiz-adv-x="1812" d="M39 1024v207q68 10 154 50t118 81h213v-813h-252v442q0 55 7 131q-123 -90 -240 -98zM268 0l977 1354h246l-977 -1354h-246zM1024 166v115l329 526h301v-475h123v-166h-123v-174h-219v174h-411zM1241 332h194v160q0 90 6 163h-6q-33 -72 -63 -120z" />
<glyph unicode="&#xbd;" horiz-adv-x="1951" d="M39 1024v207q68 10 154 50t118 81h213v-813h-252v442q0 55 7 131q-123 -90 -240 -98zM268 0l977 1354h246l-977 -1354h-246zM1180 530q2 135 99 210t261 75q180 0 268.5 -79t88.5 -187q0 -152 -199 -285q-74 -47 -158 -78v-4q86 8 187 8h180v-198h-699v158 q133 76 183 106q127 86 183 151.5t56 120.5q0 43 -24.5 68t-71.5 25q-53 0 -82 -40t-29 -116z" />
<glyph unicode="&#xbe;" horiz-adv-x="1978" d="M18 743l236 86q8 -111 121 -110q47 0 74.5 23.5t27.5 64.5q0 74 -102 74h-47v133h39q96 0 96 82q0 41 -23.5 62.5t-66.5 21.5q-96 0 -109 -107l-225 76q18 113 112.5 168t233.5 55q158 0 242 -60.5t84 -170.5q0 -82 -47.5 -130t-124.5 -53v-6q88 -2 138 -47t50 -127 q0 -111 -90 -176t-244 -65q-152 0 -245 49t-130 157zM434 0l977 1354h246l-977 -1354h-246zM1192 166v115l329 526h301v-475h123v-166h-123v-174h-219v174h-411zM1409 332h194v160q0 90 6 163h-6q-33 -72 -63 -120z" />
<glyph unicode="&#xbf;" horiz-adv-x="1239" d="M84 25q0 344 389 387l23 176h297l20 -314q-190 -14 -271 -63t-81 -133q0 -141 174 -141q90 0 143 52t62 152l336 -127q-23 -164 -162.5 -262t-403.5 -98q-241 0 -383.5 92t-142.5 279zM444 868q0 82 52.5 128t144.5 46q94 0 146.5 -46t52.5 -128t-52.5 -127t-146.5 -45 q-92 0 -144.5 45t-52.5 127z" />
<glyph unicode="&#xc0;" horiz-adv-x="1386" d="M8 0l475 1352h422l473 -1352h-362l-92 305h-467l-95 -305h-354zM365 1806h329l113 -325h-254zM530 545h320l-98 323l-60 213h-4l-55 -211z" />
<glyph unicode="&#xc1;" horiz-adv-x="1386" d="M8 0l475 1352h422l473 -1352h-362l-92 305h-467l-95 -305h-354zM530 545h320l-98 323l-60 213h-4l-55 -211zM547 1481l112 325h330l-188 -325h-254z" />
<glyph unicode="&#xc2;" horiz-adv-x="1386" d="M8 0l475 1352h422l473 -1352h-362l-92 305h-467l-95 -305h-354zM297 1473l227 342h336l227 -342h-258l-137 180l-137 -180h-258zM530 545h320l-98 323l-60 213h-4l-55 -211z" />
<glyph unicode="&#xc3;" horiz-adv-x="1386" d="M8 0l475 1352h422l473 -1352h-362l-92 305h-467l-95 -305h-354zM286 1475q12 326 271 326q61 0 99 -19.5t83 -54.5q31 -25 46.5 -34t37.5 -9q35 0 53.5 28.5t24.5 85.5h197q-13 -325 -271 -325q-61 0 -99 18.5t-81 53.5q-27 23 -46.5 34t-41.5 11q-33 0 -51.5 -29 t-24.5 -86h-197zM530 545h320l-98 323l-60 213h-4l-55 -211z" />
<glyph unicode="&#xc4;" horiz-adv-x="1386" d="M8 0l475 1352h422l473 -1352h-362l-92 305h-467l-95 -305h-354zM293 1624q0 74 46 116t126 42q82 0 129 -42t47 -116t-47 -115.5t-129 -41.5q-80 0 -126 42t-46 115zM530 545h320l-98 323l-60 213h-4l-55 -211zM743 1624q0 74 46 116t126 42q82 0 129 -42t47 -116 t-47 -115.5t-129 -41.5q-80 0 -126 42t-46 115z" />
<glyph unicode="&#xc5;" horiz-adv-x="1386" d="M8 0l471 1307q-92 68 -92 192q0 119 83 191.5t224 72.5q143 0 225 -72.5t82 -191.5q0 -125 -94 -192l471 -1307h-362l-92 305h-467l-95 -305h-354zM530 545h320l-98 323l-58 213h-8l-53 -211zM575 1487q0 -53 32 -84t87 -31t87 31t32 84t-31.5 84t-87.5 31q-55 0 -87 -31 t-32 -84z" />
<glyph unicode="&#xc6;" horiz-adv-x="1892" d="M-8 0l579 1352h1231v-260h-612v-291h469v-246h-469v-295h641v-260h-969v401h-364l-152 -401h-354zM586 631h276v471h-98z" />
<glyph unicode="&#xc7;" horiz-adv-x="1394" d="M92 676q0 215 80 372.5t229.5 240.5t352.5 83q221 0 374.5 -93t202.5 -280l-309 -125q-29 123 -88.5 172.5t-167.5 49.5q-150 0 -231.5 -107.5t-81.5 -312.5t78.5 -312.5t228.5 -107.5q113 0 178.5 53t89.5 168l320 -90q-48 -168 -159.5 -265t-275.5 -128 q109 -78 109 -193q0 -117 -80 -179t-213 -62q-166 0 -254 82l80 161q57 -57 147 -57q51 0 82 26.5t31 73.5q0 45 -31.5 78t-113.5 60q-272 25 -425 207t-153 485z" />
<glyph unicode="&#xc8;" horiz-adv-x="1292" d="M150 0v1352h1052v-273h-700v-274h557v-256h-557v-277h727v-272h-1079zM385 1806h330l112 -325h-254z" />
<glyph unicode="&#xc9;" horiz-adv-x="1292" d="M150 0v1352h1052v-273h-700v-274h557v-256h-557v-277h727v-272h-1079zM516 1481l113 325h329l-188 -325h-254z" />
<glyph unicode="&#xca;" horiz-adv-x="1292" d="M150 0v1352h1052v-273h-700v-274h557v-256h-557v-277h727v-272h-1079zM266 1473l228 342h335l228 -342h-258l-137 180l-138 -180h-258z" />
<glyph unicode="&#xcb;" horiz-adv-x="1292" d="M150 0v1352h1052v-273h-700v-274h557v-256h-557v-277h727v-272h-1079zM262 1624q0 74 46 116t126 42q82 0 129 -42t47 -116t-47 -115.5t-129 -41.5q-80 0 -126 42t-46 115zM712 1624q0 74 46 116t126 42q82 0 129 -42t47 -116t-47 -115.5t-129 -41.5q-80 0 -126 42 t-46 115z" />
<glyph unicode="&#xcc;" horiz-adv-x="651" d="M-2 1806h330l112 -325h-254zM150 0v1352h352v-1352h-352z" />
<glyph unicode="&#xcd;" horiz-adv-x="651" d="M150 0v1352h352v-1352h-352zM178 1481l113 325h330l-189 -325h-254z" />
<glyph unicode="&#xce;" horiz-adv-x="651" d="M-70 1473l228 342h336l227 -342h-258l-137 180l-138 -180h-258zM150 0v1352h352v-1352h-352z" />
<glyph unicode="&#xcf;" horiz-adv-x="651" d="M-53 1624q0 74 45 116t123 42q80 0 126 -42t46 -116t-46 -116t-126 -42q-78 0 -123 42t-45 116zM150 0v1352h352v-1352h-352zM365 1624q0 74 45 116t122 42q80 0 126.5 -42t46.5 -116t-46.5 -116t-126.5 -42q-78 0 -122.5 42t-44.5 116z" />
<glyph unicode="&#xd0;" horiz-adv-x="1517" d="M27 559v234h170v559h573q317 0 487 -175.5t170 -500.5q0 -326 -170 -501t-487 -175h-573v559h-170zM549 266h186q170 0 250 102.5t80 307.5t-80 307t-250 102h-186v-292h268v-234h-268v-293z" />
<glyph unicode="&#xd1;" horiz-adv-x="1517" d="M150 0v1352h391l420 -731l102 -205h2l-8 254v682h311v-1352h-391l-420 731l-102 205h-2l8 -254v-682h-311zM356 1475q12 326 271 326q61 0 99 -19.5t83 -54.5q31 -25 46.5 -34t37.5 -9q35 0 53.5 28.5t24.5 85.5h197q-13 -325 -271 -325q-61 0 -99 18.5t-81 53.5 q-27 23 -46.5 34t-41.5 11q-33 0 -51.5 -29t-24.5 -86h-197z" />
<glyph unicode="&#xd2;" horiz-adv-x="1509" d="M92 676q0 217 80 373.5t229.5 239.5t354.5 83t353 -83t228 -239.5t80 -373.5t-80 -374t-228 -239.5t-353 -82.5t-354.5 82.5t-229.5 239.5t-80 374zM428 1806h330l112 -325h-254zM453 676q0 -207 77.5 -313.5t225.5 -106.5q147 0 224 106.5t77 313.5t-77 313.5 t-224 106.5q-148 0 -225.5 -106.5t-77.5 -313.5z" />
<glyph unicode="&#xd3;" horiz-adv-x="1509" d="M92 676q0 217 80 373.5t229.5 239.5t354.5 83t353 -83t228 -239.5t80 -373.5t-80 -374t-228 -239.5t-353 -82.5t-354.5 82.5t-229.5 239.5t-80 374zM453 676q0 -207 77.5 -313.5t225.5 -106.5q147 0 224 106.5t77 313.5t-77 313.5t-224 106.5q-148 0 -225.5 -106.5 t-77.5 -313.5zM608 1481l113 325h330l-189 -325h-254z" />
<glyph unicode="&#xd4;" horiz-adv-x="1509" d="M92 676q0 217 80 373.5t229.5 239.5t354.5 83t353 -83t228 -239.5t80 -373.5t-80 -374t-228 -239.5t-353 -82.5t-354.5 82.5t-229.5 239.5t-80 374zM360 1473l228 342h336l227 -342h-258l-137 180l-138 -180h-258zM453 676q0 -207 77.5 -313.5t225.5 -106.5 q147 0 224 106.5t77 313.5t-77 313.5t-224 106.5q-148 0 -225.5 -106.5t-77.5 -313.5z" />
<glyph unicode="&#xd5;" horiz-adv-x="1509" d="M92 676q0 217 80 373.5t229.5 239.5t354.5 83t353 -83t228 -239.5t80 -373.5t-80 -374t-228 -239.5t-353 -82.5t-354.5 82.5t-229.5 239.5t-80 374zM348 1475q12 326 271 326q61 0 99 -19.5t83 -54.5q31 -25 46.5 -34t37.5 -9q35 0 53.5 28.5t24.5 85.5h197 q-13 -325 -271 -325q-61 0 -99 18.5t-81 53.5q-27 23 -46.5 34t-41.5 11q-33 0 -51.5 -29t-24.5 -86h-197zM453 676q0 -207 77.5 -313.5t225.5 -106.5q147 0 224 106.5t77 313.5t-77 313.5t-224 106.5q-148 0 -225.5 -106.5t-77.5 -313.5z" />
<glyph unicode="&#xd6;" horiz-adv-x="1509" d="M92 676q0 217 80 373.5t229.5 239.5t354.5 83t353 -83t228 -239.5t80 -373.5t-80 -374t-228 -239.5t-353 -82.5t-354.5 82.5t-229.5 239.5t-80 374zM355 1624q0 74 46 116t126 42q82 0 129 -42t47 -116t-47 -115.5t-129 -41.5q-80 0 -126 42t-46 115zM453 676 q0 -207 77.5 -313.5t225.5 -106.5q147 0 224 106.5t77 313.5t-77 313.5t-224 106.5q-148 0 -225.5 -106.5t-77.5 -313.5zM805 1624q0 74 46 116t126 42q82 0 129 -42t47 -116t-47 -115.5t-129 -41.5q-80 0 -126 42t-46 115z" />
<glyph unicode="&#xd7;" d="M111 348l319 320l-319 319l188 189l319 -320l320 320l188 -189l-319 -319l319 -320l-188 -188l-320 319l-319 -319z" />
<glyph unicode="&#xd8;" horiz-adv-x="1509" d="M92 676q0 217 80 373.5t229.5 239.5t354.5 83q213 0 364 -90l80 113h176l-145 -199q90 -90 138 -222t48 -298q0 -217 -80 -374t-228 -239.5t-353 -82.5q-207 0 -361 86l-88 -121h-176l150 207q-92 92 -140.5 224t-48.5 300zM453 676q0 -154 43 -252l434 616 q-68 55 -174 56q-148 0 -225.5 -106.5t-77.5 -313.5zM590 303q66 -47 166 -47q147 0 224 106.5t77 313.5q0 143 -37 237z" />
<glyph unicode="&#xd9;" horiz-adv-x="1460" d="M125 551v801h354v-807q0 -145 61.5 -217t188.5 -72q254 0 254 289v807h350v-801q0 -285 -151.5 -428t-452.5 -143q-299 0 -451.5 143t-152.5 428zM401 1806h330l113 -325h-254z" />
<glyph unicode="&#xda;" horiz-adv-x="1460" d="M125 551v801h354v-807q0 -145 61.5 -217t188.5 -72q254 0 254 289v807h350v-801q0 -285 -151.5 -428t-452.5 -143q-299 0 -451.5 143t-152.5 428zM584 1481l112 325h330l-188 -325h-254z" />
<glyph unicode="&#xdb;" horiz-adv-x="1460" d="M125 551v801h354v-807q0 -145 61.5 -217t188.5 -72q254 0 254 289v807h350v-801q0 -285 -151.5 -428t-452.5 -143q-299 0 -451.5 143t-152.5 428zM334 1473l227 342h336l227 -342h-258l-137 180l-137 -180h-258z" />
<glyph unicode="&#xdc;" horiz-adv-x="1460" d="M125 551v801h354v-807q0 -145 61.5 -217t188.5 -72q254 0 254 289v807h350v-801q0 -285 -151.5 -428t-452.5 -143q-299 0 -451.5 143t-152.5 428zM330 1624q0 74 46 116t126 42q82 0 129 -42t47 -116t-47 -115.5t-129 -41.5q-80 0 -126 42t-46 115zM780 1624q0 74 46 116 t126 42q82 0 129 -42t47 -116t-47 -115.5t-129 -41.5q-80 0 -126 42t-46 115z" />
<glyph unicode="&#xdd;" horiz-adv-x="1345" d="M18 1352h365l190 -371l101 -225l102 225l191 371h358l-477 -858v-494h-352v494zM524 1481l113 325h330l-189 -325h-254z" />
<glyph unicode="&#xde;" horiz-adv-x="1363" d="M150 0v1352h352v-207h248q260 0 398 -116t136 -339q2 -221 -136 -337.5t-398 -116.5h-248v-236h-352zM502 498h207q110 0 165.5 47t55.5 145q0 190 -221 191h-207v-383z" />
<glyph unicode="&#xdf;" horiz-adv-x="1327" d="M125 0v944q0 256 136 390t444 134q168 0 284.5 -52t174 -142t57.5 -201q0 -82 -39 -156.5t-114 -121.5t-181 -47v-5q172 0 270 -103t98 -263q0 -109 -49 -199t-150.5 -144t-250.5 -54q-80 0 -145.5 17t-108.5 48l57 231q27 -25 57.5 -36t77.5 -11q84 0 131.5 53.5 t47.5 141.5q0 92 -56.5 139t-163.5 47h-100l35 248h63q86 2 134.5 52.5t48.5 131.5q0 84 -49.5 129.5t-137.5 45.5q-123 0 -173 -70t-50 -229v-918h-348z" />
<glyph unicode="&#xe0;" horiz-adv-x="1189" d="M66 236q0 131 93 211.5t306 123.5l231 45v37q0 70 -39 111t-106 41q-78 0 -127 -37t-64 -121l-282 82q27 150 147.5 232.5t325.5 82.5q240 0 364.5 -98t124.5 -295v-372q0 -80 74 -80q39 0 64 8l-27 -195q-59 -33 -139 -32q-221 0 -264 157q-92 -158 -365 -157 q-154 0 -235.5 65.5t-81.5 190.5zM241 1511h324l137 -354h-254zM410 293q0 -43 26.5 -65.5t73.5 -22.5q72 0 129 40t57 105v88l-166 -39q-66 -16 -93 -39.5t-27 -66.5z" />
<glyph unicode="&#xe1;" horiz-adv-x="1189" d="M66 236q0 131 93 211.5t306 123.5l231 45v37q0 70 -39 111t-106 41q-78 0 -127 -37t-64 -121l-282 82q27 150 147.5 232.5t325.5 82.5q240 0 364.5 -98t124.5 -295v-372q0 -80 74 -80q39 0 64 8l-27 -195q-59 -33 -139 -32q-221 0 -264 157q-92 -158 -365 -157 q-154 0 -235.5 65.5t-81.5 190.5zM408 1157l137 354h324l-207 -354h-254zM410 293q0 -43 26.5 -65.5t73.5 -22.5q72 0 129 40t57 105v88l-166 -39q-66 -16 -93 -39.5t-27 -66.5z" />
<glyph unicode="&#xe2;" horiz-adv-x="1189" d="M66 236q0 131 93 211.5t306 123.5l231 45v37q0 70 -39 111t-106 41q-78 0 -127 -37t-64 -121l-282 82q27 150 147.5 232.5t325.5 82.5q240 0 364.5 -98t124.5 -295v-372q0 -80 74 -80q39 0 64 8l-27 -195q-59 -33 -139 -32q-221 0 -264 157q-92 -158 -365 -157 q-154 0 -235.5 65.5t-81.5 190.5zM174 1145l221 354h340l221 -354h-252l-139 178l-139 -178h-252zM410 293q0 -43 26.5 -65.5t73.5 -22.5q72 0 129 40t57 105v88l-166 -39q-66 -16 -93 -39.5t-27 -66.5z" />
<glyph unicode="&#xe3;" horiz-adv-x="1189" d="M66 236q0 131 93 211.5t306 123.5l231 45v37q0 70 -39 111t-106 41q-78 0 -127 -37t-64 -121l-282 82q27 150 147.5 232.5t325.5 82.5q240 0 364.5 -98t124.5 -295v-372q0 -80 74 -80q39 0 64 8l-27 -195q-59 -33 -139 -32q-221 0 -264 157q-92 -158 -365 -157 q-154 0 -235.5 65.5t-81.5 190.5zM159 1147q12 326 271 326q61 0 99 -19.5t83 -54.5q31 -25 46.5 -34t37.5 -9q35 0 53.5 28.5t24.5 85.5h197q-13 -325 -271 -325q-61 0 -99 18.5t-81 53.5q-27 23 -46.5 34t-41.5 11q-33 0 -51.5 -29t-24.5 -86h-197zM410 293 q0 -43 26.5 -65.5t73.5 -22.5q72 0 129 40t57 105v88l-166 -39q-66 -16 -93 -39.5t-27 -66.5z" />
<glyph unicode="&#xe4;" horiz-adv-x="1189" d="M66 236q0 131 93 211.5t306 123.5l231 45v37q0 70 -39 111t-106 41q-78 0 -127 -37t-64 -121l-282 82q27 150 147.5 232.5t325.5 82.5q240 0 364.5 -98t124.5 -295v-372q0 -80 74 -80q39 0 64 8l-27 -195q-59 -33 -139 -32q-221 0 -264 157q-92 -158 -365 -157 q-154 0 -235.5 65.5t-81.5 190.5zM166 1296q0 74 46 116t126 42q82 0 129 -42t47 -116t-47 -115.5t-129 -41.5q-80 0 -126 42t-46 115zM410 293q0 -43 26.5 -65.5t73.5 -22.5q72 0 129 40t57 105v88l-166 -39q-66 -16 -93 -39.5t-27 -66.5zM616 1296q0 74 46 116t126 42 q82 0 129 -42t47 -116t-47 -115.5t-129 -41.5q-80 0 -126 42t-46 115z" />
<glyph unicode="&#xe5;" horiz-adv-x="1189" d="M66 236q0 131 93 211.5t306 123.5l231 45v37q0 70 -39 111t-106 41q-78 0 -127 -37t-64 -121l-282 82q27 150 147.5 232.5t325.5 82.5q240 0 364.5 -98t124.5 -295v-372q0 -80 74 -80q39 0 64 8l-27 -195q-59 -33 -139 -32q-221 0 -264 157q-92 -158 -365 -157 q-154 0 -235.5 65.5t-81.5 190.5zM291 1376q0 115 73.5 181.5t202.5 66.5t202 -66.5t73 -181.5t-73 -181.5t-202 -66.5t-202.5 67t-73.5 181zM410 293q0 -43 26.5 -65.5t73.5 -22.5q72 0 129 40t57 105v88l-166 -39q-66 -16 -93 -39.5t-27 -66.5zM459 1376q0 -47 29.5 -75.5 t78.5 -28.5q47 0 77 28.5t30 75.5t-30 76t-77 29q-49 0 -78.5 -29t-29.5 -76z" />
<glyph unicode="&#xe6;" horiz-adv-x="1800" d="M66 233q0 129 91 204t289 114l256 51v51q0 74 -39.5 113t-117.5 39q-74 0 -118 -36t-65 -118l-282 72q27 152 144.5 236.5t322.5 84.5q117 0 208 -38.5t148 -110.5q59 72 143 110.5t189 38.5q233 0 361 -135t128 -356q0 -68 -8 -129h-674q14 -102 69.5 -150.5 t141.5 -48.5q74 0 113 28t57 85l281 -90q-43 -133 -162 -200.5t-299 -67.5q-268 0 -383 194q-55 -94 -173 -144t-288 -50q-164 0 -248.5 68.5t-84.5 184.5zM406 281q0 -94 110 -95q78 0 132 45t54 129v82l-145 -34q-82 -20 -116.5 -48t-34.5 -79zM1040 594h365 q-10 102 -50 154.5t-122 52.5q-166 0 -193 -207z" />
<glyph unicode="&#xe7;" horiz-adv-x="1169" d="M76 512q0 252 142 392t396 140q231 0 348 -88t146 -229l-324 -106q-20 176 -157 176q-203 0 -203 -289q0 -281 203 -281q145 0 170 166l313 -100q-16 -111 -101 -189.5t-225 -109.5q55 -37 83 -87t28 -106q0 -117 -80 -179t-213 -62q-166 0 -254 82l80 161 q57 -57 147 -57q51 0 82 26.5t31 73.5q0 45 -31.5 78t-113.5 60q-227 20 -347 157.5t-120 370.5z" />
<glyph unicode="&#xe8;" horiz-adv-x="1191" d="M76 512q0 254 139 393t395 139q248 0 380 -136t132 -382q0 -69 -10 -114h-698q16 -96 70.5 -141.5t144.5 -45.5q76 0 124 29t64 84l283 -90q-43 -131 -167 -199.5t-304 -68.5q-268 0 -410.5 139t-142.5 393zM280 1511h324l137 -354h-254zM412 600h385q-25 201 -189 201 q-165 0 -196 -201z" />
<glyph unicode="&#xe9;" horiz-adv-x="1191" d="M76 512q0 254 139 393t395 139q248 0 380 -136t132 -382q0 -69 -10 -114h-698q16 -96 70.5 -141.5t144.5 -45.5q76 0 124 29t64 84l283 -90q-43 -131 -167 -199.5t-304 -68.5q-268 0 -410.5 139t-142.5 393zM412 600h385q-25 201 -189 201q-165 0 -196 -201zM447 1157 l137 354h324l-207 -354h-254z" />
<glyph unicode="&#xea;" horiz-adv-x="1191" d="M76 512q0 254 139 393t395 139q248 0 380 -136t132 -382q0 -69 -10 -114h-698q16 -96 70.5 -141.5t144.5 -45.5q76 0 124 29t64 84l283 -90q-43 -131 -167 -199.5t-304 -68.5q-268 0 -410.5 139t-142.5 393zM213 1145l221 354h340l221 -354h-252l-139 178l-139 -178h-252 zM412 600h385q-25 201 -189 201q-165 0 -196 -201z" />
<glyph unicode="&#xeb;" horiz-adv-x="1191" d="M76 512q0 254 139 393t395 139q248 0 380 -136t132 -382q0 -69 -10 -114h-698q16 -96 70.5 -141.5t144.5 -45.5q76 0 124 29t64 84l283 -90q-43 -131 -167 -199.5t-304 -68.5q-268 0 -410.5 139t-142.5 393zM205 1296q0 74 46 116t126 42q82 0 129 -42t47 -116 t-47 -115.5t-129 -41.5q-80 0 -126 42t-46 115zM412 600h385q-25 201 -189 201q-165 0 -196 -201zM655 1296q0 74 46 116t126 42q82 0 129 -42t47 -116t-47 -115.5t-129 -41.5q-80 0 -126 42t-46 115z" />
<glyph unicode="&#xec;" horiz-adv-x="595" d="M-25 1511h324l137 -354h-254zM125 0v1024h348v-1024h-348z" />
<glyph unicode="&#xed;" horiz-adv-x="595" d="M125 0v1024h348v-1024h-348zM150 1157l137 354h324l-207 -354h-254z" />
<glyph unicode="&#xee;" horiz-adv-x="595" d="M-92 1145l221 354h340l221 -354h-252l-139 178l-139 -178h-252zM125 0v1024h348v-1024h-348z" />
<glyph unicode="&#xef;" horiz-adv-x="595" d="M-63 1296q0 78 41.5 120t121.5 42q82 0 124 -42t42 -120t-42 -119.5t-124 -41.5q-80 0 -121.5 42t-41.5 119zM125 0v1024h348v-1024h-348zM330 1296q0 78 42 120t124 42q80 0 121.5 -42t41.5 -120t-42 -119.5t-121 -41.5q-82 0 -124 42t-42 119z" />
<glyph unicode="&#xf0;" d="M84 498q0 160 62.5 276.5t176 178t261.5 61.5q205 0 293 -144q-43 184 -156 316l-334 -72l-22 115l276 41q-96 88 -281 209h318q115 -61 209 -158l246 57l28 -114l-205 -25q195 -254 195 -618q0 -328 -132 -484.5t-419 -156.5q-242 0 -379 137t-137 381zM436 498 q0 -270 187 -271q100 0 149 70t49 201q0 147 -48 216.5t-146 69.5q-96 0 -143.5 -69.5t-47.5 -216.5z" />
<glyph unicode="&#xf1;" horiz-adv-x="1269" d="M125 0v1024h311l10 -197q49 109 139.5 163t211.5 54q161 0 257.5 -94t96.5 -268v-682h-348v586q0 104 -38 148t-108 44q-82 0 -133 -58t-51 -179v-541h-348zM233 1147q12 326 271 326q61 0 99 -19.5t83 -54.5q31 -25 46.5 -34t37.5 -9q35 0 53.5 28.5t24.5 85.5h197 q-13 -325 -271 -325q-61 0 -99 18.5t-81 53.5q-27 23 -46.5 34t-41.5 11q-33 0 -51.5 -29t-24.5 -86h-197z" />
<glyph unicode="&#xf2;" horiz-adv-x="1232" d="M76 512q0 252 142 392t398 140t398.5 -140t142.5 -392t-142.5 -392t-398.5 -140t-398 140t-142 392zM292 1511h324l137 -354h-254zM424 512q0 -150 47 -217.5t145 -67.5t145.5 67.5t47.5 217.5t-47 217.5t-146 67.5q-98 0 -145 -67.5t-47 -217.5z" />
<glyph unicode="&#xf3;" horiz-adv-x="1232" d="M76 512q0 252 142 392t398 140t398.5 -140t142.5 -392t-142.5 -392t-398.5 -140t-398 140t-142 392zM424 512q0 -150 47 -217.5t145 -67.5t145.5 67.5t47.5 217.5t-47 217.5t-146 67.5q-98 0 -145 -67.5t-47 -217.5zM459 1157l137 354h324l-207 -354h-254z" />
<glyph unicode="&#xf4;" horiz-adv-x="1232" d="M76 512q0 252 142 392t398 140t398.5 -140t142.5 -392t-142.5 -392t-398.5 -140t-398 140t-142 392zM225 1145l221 354h340l221 -354h-252l-139 178l-139 -178h-252zM424 512q0 -150 47 -217.5t145 -67.5t145.5 67.5t47.5 217.5t-47 217.5t-146 67.5q-98 0 -145 -67.5 t-47 -217.5z" />
<glyph unicode="&#xf5;" horiz-adv-x="1232" d="M76 512q0 252 142 392t398 140t398.5 -140t142.5 -392t-142.5 -392t-398.5 -140t-398 140t-142 392zM210 1147q12 326 271 326q61 0 99 -19.5t83 -54.5q31 -25 46.5 -34t37.5 -9q35 0 53.5 28.5t24.5 85.5h197q-13 -325 -271 -325q-61 0 -99 18.5t-81 53.5 q-27 23 -46.5 34t-41.5 11q-33 0 -51.5 -29t-24.5 -86h-197zM424 512q0 -150 47 -217.5t145 -67.5t145.5 67.5t47.5 217.5t-47 217.5t-146 67.5q-98 0 -145 -67.5t-47 -217.5z" />
<glyph unicode="&#xf6;" horiz-adv-x="1232" d="M76 512q0 252 142 392t398 140t398.5 -140t142.5 -392t-142.5 -392t-398.5 -140t-398 140t-142 392zM217 1296q0 74 46 116t126 42q82 0 129 -42t47 -116t-47 -115.5t-129 -41.5q-80 0 -126 42t-46 115zM424 512q0 -150 47 -217.5t145 -67.5t145.5 67.5t47.5 217.5 t-47 217.5t-146 67.5q-98 0 -145 -67.5t-47 -217.5zM667 1296q0 74 46 116t126 42q82 0 129 -42t47 -116t-47 -115.5t-129 -41.5q-80 0 -126 42t-46 115z" />
<glyph unicode="&#xf7;" d="M102 541v250h1033v-250h-1033zM444 227q0 80 47.5 125t129.5 45q81 0 128.5 -45t47.5 -125t-47.5 -125t-128.5 -45q-82 0 -129.5 45t-47.5 125zM444 1108q0 80 47.5 125t129.5 45q81 0 128.5 -45t47.5 -125t-47.5 -125t-128.5 -45q-82 0 -129.5 45t-47.5 125z" />
<glyph unicode="&#xf8;" horiz-adv-x="1232" d="M76 512q0 252 142 392t398 140q187 1 316 -75l78 98h137l-131 -164q141 -141 141 -391q0 -252 -142.5 -392t-398.5 -140q-176 0 -297 67l-77 -102h-138l125 164q-154 141 -153 403zM424 512q0 -80 31 -147h2l47 71l237 314q-45 47 -125 47q-98 0 -145 -67.5t-47 -217.5z M506 262q37 -35 110 -35q99 0 146 67.5t47 217.5q0 74 -25 123h-2l-45 -66z" />
<glyph unicode="&#xf9;" horiz-adv-x="1269" d="M119 340v684h348v-596q0 -100 35 -141t106 -41q86 0 137.5 58t51.5 177v543h348v-1024h-311l-11 190q-96 -211 -354 -210q-164 0 -257 87t-93 273zM303 1511h324l137 -354h-254z" />
<glyph unicode="&#xfa;" horiz-adv-x="1269" d="M119 340v684h348v-596q0 -100 35 -141t106 -41q86 0 137.5 58t51.5 177v543h348v-1024h-311l-11 190q-96 -211 -354 -210q-164 0 -257 87t-93 273zM469 1157l137 354h324l-207 -354h-254z" />
<glyph unicode="&#xfb;" horiz-adv-x="1269" d="M119 340v684h348v-596q0 -100 35 -141t106 -41q86 0 137.5 58t51.5 177v543h348v-1024h-311l-11 190q-96 -211 -354 -210q-164 0 -257 87t-93 273zM236 1145l221 354h340l221 -354h-252l-139 178l-139 -178h-252z" />
<glyph unicode="&#xfc;" horiz-adv-x="1269" d="M119 340v684h348v-596q0 -100 35 -141t106 -41q86 0 137.5 58t51.5 177v543h348v-1024h-311l-11 190q-96 -211 -354 -210q-164 0 -257 87t-93 273zM226 1296q0 74 46 116t126 42q82 0 129 -42t47 -116t-47 -115.5t-129 -41.5q-80 0 -126 42t-46 115zM676 1296 q0 74 46 116t126 42q82 0 129 -42t47 -116t-47 -115.5t-129 -41.5q-80 0 -126 42t-46 115z" />
<glyph unicode="&#xfd;" horiz-adv-x="1167" d="M6 -365l74 234q33 -31 73 -42t103 -11t100 21.5t60 76.5l24 63l-118 279l-306 768h383l158 -584l49 -217l56 226l157 575h348l-374 -1024q-57 -164 -125 -260t-160 -138t-223 -42q-174 0 -279 75zM463 1157l137 354h324l-207 -354h-254z" />
<glyph unicode="&#xfe;" horiz-adv-x="1286" d="M125 -430v1888h348v-612q43 92 124 145t194 53q184 0 298.5 -133t114.5 -389q0 -193 -60.5 -314.5t-156.5 -174.5t-207 -53q-109 0 -185.5 46t-121.5 128v-584h-348zM473 502q0 -127 49 -196.5t140 -69.5q96 0 144 66.5t48 209.5t-48 209.5t-144 66.5q-88 0 -138.5 -67.5 t-50.5 -198.5v-20z" />
<glyph unicode="&#xff;" horiz-adv-x="1167" d="M6 -365l74 234q33 -31 73 -42t103 -11t100 21.5t60 76.5l24 63l-118 279l-306 768h383l158 -584l49 -217l56 226l157 575h348l-374 -1024q-57 -164 -125 -260t-160 -138t-223 -42q-174 0 -279 75zM221 1296q0 74 46 116t126 42q82 0 129 -42t47 -116t-47 -115.5 t-129 -41.5q-80 0 -126 42t-46 115zM671 1296q0 74 46 116t126 42q82 0 129 -42t47 -116t-47 -115.5t-129 -41.5q-80 0 -126 42t-46 115z" />
<glyph unicode="&#x152;" horiz-adv-x="2146" d="M92 676q0 217 77 373.5t220 239.5t340 83q254 0 418 -176v156h911v-273h-676v-274h531v-256h-531v-277h703v-272h-938v158q-162 -178 -422 -178q-193 0 -336 82.5t-220 240.5t-77 373zM446 676q0 -207 76 -313.5t221 -106.5q142 0 217.5 107.5t75.5 312.5t-75.5 312.5 t-217.5 107.5q-145 0 -221 -106.5t-76 -313.5z" />
<glyph unicode="&#x153;" horiz-adv-x="1953" d="M76 512q0 250 140 391t386 141q133 0 233.5 -46t161.5 -132q59 86 153.5 132t217.5 46q164 0 279.5 -62t174 -174t58.5 -255q0 -74 -10 -119h-699q14 -109 68.5 -159t149.5 -50q76 0 124 29t64 84l283 -90q-43 -131 -167 -199.5t-304 -68.5q-264 0 -392 180 q-127 -180 -395 -180q-246 0 -386 141t-140 391zM428 512q0 -150 47 -217.5t143 -67.5q99 0 146 67.5t47 217.5t-47 218.5t-146 68.5q-96 0 -143 -68.5t-47 -218.5zM1171 596h379q-25 205 -180 205q-86 0 -135 -50.5t-64 -154.5z" />
<glyph unicode="&#x178;" horiz-adv-x="1345" d="M18 1352h365l190 -371l101 -225l102 225l191 371h358l-477 -858v-494h-352v494zM273 1624q0 74 46 116t126 42q82 0 129 -42t47 -116t-47 -115.5t-129 -41.5q-80 0 -126 42t-46 115zM723 1624q0 74 46 116t126 42q82 0 129 -42t47 -116t-47 -115.5t-129 -41.5 q-80 0 -126 42t-46 115z" />
<glyph unicode="&#x2c6;" horiz-adv-x="1024" d="M121 1145l221 354h340l221 -354h-252l-139 178l-139 -178h-252z" />
<glyph unicode="&#x2dc;" horiz-adv-x="1024" d="M106 1147q12 326 271 326q61 0 99 -19.5t83 -54.5q31 -25 46.5 -34t37.5 -9q35 0 53.5 28.5t24.5 85.5h197q-13 -325 -271 -325q-61 0 -99 18.5t-81 53.5q-27 23 -46.5 34t-41.5 11q-33 0 -51.5 -29t-24.5 -86h-197z" />
<glyph unicode="&#x2000;" horiz-adv-x="907" />
<glyph unicode="&#x2001;" horiz-adv-x="1815" />
<glyph unicode="&#x2002;" horiz-adv-x="907" />
<glyph unicode="&#x2003;" horiz-adv-x="1815" />
<glyph unicode="&#x2004;" horiz-adv-x="605" />
<glyph unicode="&#x2005;" horiz-adv-x="453" />
<glyph unicode="&#x2006;" horiz-adv-x="302" />
<glyph unicode="&#x2007;" horiz-adv-x="302" />
<glyph unicode="&#x2008;" horiz-adv-x="226" />
<glyph unicode="&#x2009;" horiz-adv-x="363" />
<glyph unicode="&#x200a;" horiz-adv-x="100" />
<glyph unicode="&#x2010;" horiz-adv-x="1081" d="M166 406v284h749v-284h-749z" />
<glyph unicode="&#x2011;" horiz-adv-x="1081" d="M166 406v284h749v-284h-749z" />
<glyph unicode="&#x2012;" horiz-adv-x="1081" d="M166 406v284h749v-284h-749z" />
<glyph unicode="&#x2013;" horiz-adv-x="1417" d="M160 410v276h1097v-276h-1097z" />
<glyph unicode="&#x2014;" horiz-adv-x="2060" d="M160 410v276h1741v-276h-1741z" />
<glyph unicode="&#x2018;" horiz-adv-x="602" d="M84 1004q0 135 72.5 244.5t212.5 168.5l153 -108q-205 -80 -254 -219l8 -7q27 23 64 23q68 0 119 -45t51 -129q0 -90 -56.5 -140.5t-148.5 -50.5q-106 0 -163.5 74t-57.5 189z" />
<glyph unicode="&#x2019;" horiz-adv-x="602" d="M90 846q203 76 256 219l-10 6q-20 -23 -62 -22q-68 0 -120 44t-52 128q0 92 56.5 142t148.5 50q109 0 165 -73.5t56 -188.5q0 -135 -72.5 -244.5t-211.5 -169.5z" />
<glyph unicode="&#x201a;" horiz-adv-x="593" d="M72 -215q96 37 162.5 92t91.5 127l-9 6q-23 -23 -63 -22q-68 0 -119 45t-51 127q0 92 56.5 142t148.5 50q108 0 164.5 -73.5t56.5 -190.5q0 -135 -72.5 -243.5t-212.5 -168.5z" />
<glyph unicode="&#x201c;" horiz-adv-x="1103" d="M84 1004q0 135 72.5 244.5t212.5 168.5l153 -108q-205 -80 -254 -219l8 -7q27 23 64 23q68 0 119 -45t51 -129q0 -90 -56.5 -140.5t-148.5 -50.5q-106 0 -163.5 74t-57.5 189zM586 1004q0 135 72.5 244.5t212.5 168.5l153 -108q-205 -80 -254 -219l8 -7q27 23 64 23 q68 0 119 -45t51 -129q0 -90 -56.5 -140.5t-148.5 -50.5q-106 0 -163.5 74t-57.5 189z" />
<glyph unicode="&#x201d;" horiz-adv-x="1093" d="M90 846q203 76 256 219l-10 6q-20 -23 -62 -22q-68 0 -120 44t-52 128q0 92 56.5 142t148.5 50q109 0 165 -73.5t56 -188.5q0 -135 -72.5 -244.5t-211.5 -169.5zM582 846q203 76 256 219l-10 6q-20 -23 -62 -22q-68 0 -120 44t-52 128q0 92 56.5 142t148.5 50 q109 0 165 -73.5t56 -188.5q0 -135 -72.5 -244.5t-211.5 -169.5z" />
<glyph unicode="&#x201e;" horiz-adv-x="1085" d="M72 -215q96 37 162.5 92t91.5 127l-9 6q-23 -23 -63 -22q-68 0 -119 45t-51 127q0 92 56.5 142t148.5 50q108 0 164.5 -73.5t56.5 -190.5q0 -135 -72.5 -243.5t-212.5 -168.5zM563 -215q96 37 162.5 92t91.5 127l-9 6q-23 -23 -63 -22q-68 0 -119 45t-51 127 q0 92 56.5 142t148.5 50q108 0 164.5 -73.5t56.5 -190.5q0 -135 -72.5 -243.5t-212.5 -168.5z" />
<glyph unicode="&#x2022;" horiz-adv-x="880" d="M125 682q0 139 85 221t230 82q146 0 231 -82t85 -221q0 -141 -85 -223t-231 -82q-145 0 -230 82t-85 223z" />
<glyph unicode="&#x2026;" horiz-adv-x="1880" d="M102 166q0 88 54.5 137t150.5 49t150.5 -49t54.5 -137q0 -86 -54.5 -135t-150.5 -49t-150.5 49t-54.5 135zM735 166q0 88 54.5 137t150.5 49t150.5 -49t54.5 -137q0 -86 -54.5 -135t-150.5 -49t-150.5 49t-54.5 135zM1368 166q0 88 54.5 137t150.5 49t150.5 -49 t54.5 -137q0 -86 -54.5 -135t-150.5 -49t-150.5 49t-54.5 135z" />
<glyph unicode="&#x202f;" horiz-adv-x="363" />
<glyph unicode="&#x2039;" horiz-adv-x="702" d="M72 543l256 401h303l-248 -401l248 -402h-303z" />
<glyph unicode="&#x203a;" horiz-adv-x="702" d="M72 141l247 402l-247 401h303l256 -401l-256 -402h-303z" />
<glyph unicode="&#x205f;" horiz-adv-x="453" />
<glyph unicode="&#x20ac;" horiz-adv-x="1437" d="M51 428v160h160q-4 57 -4 88q0 25 2 37h-158v157h174q47 240 209 371t412 131q199 0 343 -85t189 -234l-258 -123q-16 98 -86.5 147t-169.5 49q-125 0 -203.5 -64.5t-111.5 -191.5h483l-53 -157h-451v-37q0 -61 2 -88h420l-51 -160h-336q74 -203 293 -203q98 0 169 53.5 t93 157.5l268 -80q-45 -184 -189 -280t-351 -96q-236 0 -393.5 116.5t-214.5 331.5h-187z" />
<glyph unicode="&#x2122;" horiz-adv-x="1695" d="M45 1200v152h623v-152h-209v-524h-205v524h-209zM754 676v676h293l100 -310l35 -131h6l33 131l102 310h287v-676h-201v266l10 209h-4l-41 -143l-108 -332h-164l-113 334l-39 141h-4l10 -209v-266h-202z" />
<glyph unicode="&#x25fc;" horiz-adv-x="1024" d="M0 0v1024h1024v-1024h-1024z" />
</font>
</defs>
</svg>
