<?xml version="1.0" standalone="no"?>
<!DOCTYPE svg PUBLIC "-//W3C//DTD SVG 1.1//EN" "http://www.w3.org/Graphics/SVG/1.1/DTD/svg11.dtd" >
<svg xmlns="http://www.w3.org/2000/svg" xmlns:xlink="http://www.w3.org/1999/xlink" version="1.1">
<metadata></metadata>
<defs>
<font id="work_sansblack" horiz-adv-x="1492" >
<font-face units-per-em="2048" ascent="1638" descent="-410" />
<missing-glyph horiz-adv-x="512" />
<glyph unicode="&#xfb01;" horiz-adv-x="1511" d="M6 707v317h137v41q0 215 133.5 312.5t333.5 97.5q188 0 277 -68l-31 -272q-23 16 -49.5 24t-67.5 8q-78 0 -117.5 -28.5t-39.5 -98.5v-16h290v-317h-258v-707h-471v707h-137zM940 1286q0 106 58.5 151.5t197.5 45.5t197.5 -45t58.5 -152q0 -106 -58 -151t-198 -45 q-139 0 -197.5 45t-58.5 151zM961 0v1024h471v-1024h-471z" />
<glyph unicode="&#xfb02;" horiz-adv-x="1579" d="M6 707v317h137v41q0 215 133.5 312.5t333.5 97.5q188 0 277 -68l-31 -272q-23 16 -49.5 24t-67.5 8q-78 0 -117.5 -28.5t-39.5 -98.5v-16h290v-317h-258v-707h-471v707h-137zM961 336v1098h471v-1026q0 -63 18.5 -91t65.5 -28q37 0 74 10l-21 -254q-37 -29 -110.5 -47 t-143.5 -18q-190 0 -272 81.5t-82 274.5z" />
<glyph horiz-adv-x="0" />
<glyph horiz-adv-x="682" />
<glyph unicode=" "  horiz-adv-x="512" />
<glyph unicode="&#x09;" horiz-adv-x="512" />
<glyph unicode="&#xa0;" horiz-adv-x="512" />
<glyph unicode="!" horiz-adv-x="657" d="M82 1016v336h491v-336l-49 -565h-393zM88 182q0 94 62.5 145.5t177.5 51.5q114 0 176.5 -51.5t62.5 -145.5t-62.5 -145t-176.5 -51q-115 0 -177.5 51t-62.5 145z" />
<glyph unicode="&#x22;" horiz-adv-x="976" d="M102 764v608h367l-66 -608h-301zM546 764v608h367l-66 -608h-301z" />
<glyph unicode="#" horiz-adv-x="1476" d="M61 291v264h230l37 242h-181v264h224l45 291h303l-45 -291h215l45 291h303l-47 -291h225v-264h-266l-39 -242h219v-264h-260l-47 -291h-301l45 291h-215l-45 -291h-303l45 291h-187zM594 555h215l37 242h-215z" />
<glyph unicode="$" horiz-adv-x="1337" d="M23 197l186 284q133 -164 407 -176v199q-168 31 -279.5 66.5t-193.5 119.5t-82 232q0 180 145.5 295.5t409.5 132.5v166h134v-164q211 -6 337.5 -61.5t241.5 -160.5l-201 -258q-72 86 -164 128t-214 49v-213q164 -29 278.5 -68t197.5 -126t83 -239q0 -180 -157 -285.5 t-402 -115.5v-166h-134v166q-211 8 -347 55t-246 140zM487 950q0 -31 32 -51t97 -37v178q-61 -10 -95 -33.5t-34 -56.5zM750 307q135 15 135 78q0 61 -135 92v-170z" />
<glyph unicode="%" horiz-adv-x="2031" d="M49 979q0 178 115 285.5t303 107.5t303 -107.5t115 -285.5t-115 -285.5t-303 -107.5t-303 107.5t-115 285.5zM350 0l996 1354h340l-996 -1354h-340zM383 979q0 -43 21.5 -66.5t62.5 -23.5t62.5 23.5t21.5 66.5t-21.5 66.5t-62.5 23.5t-62.5 -23.5t-21.5 -66.5zM1147 373 q0 178 114.5 285.5t303.5 107.5q188 0 302.5 -107.5t114.5 -285.5t-114.5 -285.5t-302.5 -107.5t-303 107.5t-115 285.5zM1481 373q0 -43 21.5 -66.5t62.5 -23.5t62.5 23.5t21.5 66.5t-21.5 66.5t-62.5 23.5t-62.5 -23.5t-21.5 -66.5z" />
<glyph unicode="&#x26;" horiz-adv-x="1355" d="M20 365q0 96 54.5 189t181.5 140q-72 88 -95.5 152.5t-23.5 150.5q0 96 51.5 182.5t159 139.5t264.5 53q162 0 266.5 -51t150.5 -130t46 -167q0 -125 -76.5 -222t-220.5 -147l60 -57l114 -111q27 84 27 187h299q-10 -215 -123 -350q59 -27 111 -27q20 0 69 8l-24 -325 q-135 0 -222.5 21.5t-183.5 86.5q-143 -109 -379 -108q-231 0 -368.5 96t-137.5 289zM416 391q0 -55 45 -87t127 -32q45 1 84 7l-43 40q-139 131 -183 175q-18 -23 -24 -46.5t-6 -56.5zM530 977q0 -33 18.5 -66.5t69.5 -91.5q55 47 75 87t20 89q0 41 -24.5 64.5t-63.5 23.5 q-43 0 -69 -27.5t-26 -78.5z" />
<glyph unicode="'" horiz-adv-x="532" d="M102 764v608h367l-66 -608h-301z" />
<glyph unicode="(" horiz-adv-x="856" d="M145 547q0 659 506 940l211 -205q-160 -141 -232.5 -310t-72.5 -425q0 -258 72.5 -427t232.5 -310l-211 -205q-506 285 -506 942z" />
<glyph unicode=")" horiz-adv-x="856" d="M-6 -190q160 141 232.5 310t72.5 427q0 256 -72.5 425t-232.5 310l211 205q506 -281 506 -940q0 -657 -506 -942z" />
<glyph unicode="*" horiz-adv-x="1226" d="M59 975l101 309l282 -106l29 -19l-8 35l-12 301h323l-12 -301l-8 -35l28 19l285 106l100 -309l-293 -82l-30 -2l24 -21l187 -237l-262 -191l-168 252l-13 31l-12 -31l-168 -252l-262 191l188 237l25 21l-33 2z" />
<glyph unicode="+" horiz-adv-x="1236" d="M92 520v314h348v407h359v-407h346v-314h-346v-407h-359v407h-348z" />
<glyph unicode="," horiz-adv-x="626" d="M45 -213q113 47 185.5 99.5t105.5 125.5l-10 8q-27 -29 -66 -28q-84 0 -146.5 52t-62.5 151q0 115 66.5 171t185.5 56q133 0 199.5 -86t66.5 -219q0 -152 -84 -272.5t-241 -184.5z" />
<glyph unicode="-" horiz-adv-x="1105" d="M154 377v358h798v-358h-798z" />
<glyph unicode="." horiz-adv-x="626" d="M61 203q0 104 66 161.5t186 57.5q121 0 186.5 -57.5t65.5 -161.5t-65.5 -161.5t-186.5 -57.5t-186.5 57t-65.5 162z" />
<glyph unicode="/" horiz-adv-x="999" d="M12 -143l539 1577h436l-538 -1577h-437z" />
<glyph unicode="0" horiz-adv-x="1347" d="M74 676q0 350 147.5 523t452.5 173t452.5 -173t147.5 -523t-147.5 -523t-452.5 -173t-452.5 173t-147.5 523zM541 676q0 -137 11 -208t40 -100.5t82 -29.5t81.5 29.5t40 100.5t11.5 208t-11.5 207.5t-40 100.5t-81.5 30t-82 -30t-40 -100.5t-11 -207.5z" />
<glyph unicode="1" horiz-adv-x="940" d="M41 1135q123 14 245 78.5t169 138.5h370v-1352h-456v905q-147 -131 -301 -153z" />
<glyph unicode="2" horiz-adv-x="1239" d="M59 872q-4 166 70 278t205 167t297 55q193 0 315.5 -67.5t177 -169t54.5 -203.5q0 -188 -141.5 -333.5t-383.5 -260.5v-4q127 12 322 12h211v-346h-1082v287q295 156 450 317.5t155 286.5q0 53 -27 88t-84 35q-70 0 -102.5 -58.5t-28.5 -181.5z" />
<glyph unicode="3" horiz-adv-x="1228" d="M35 324l430 174q-4 -96 33 -132t98 -36q119 0 119 102q0 51 -30 75.5t-97 24.5h-92v271h65q68 0 97.5 26.5t29.5 83.5q0 51 -26.5 80t-73.5 29q-125 0 -123 -168l-412 127q23 213 173.5 302t396.5 89q249 0 385.5 -102.5t136.5 -294.5q0 -113 -50.5 -178.5t-110.5 -91 t-93 -25.5v-8q43 0 105.5 -19.5t117.5 -86t55 -193.5q0 -119 -72.5 -208t-199.5 -137t-285 -48q-248 0 -387 78.5t-190 265.5z" />
<glyph unicode="4" horiz-adv-x="1372" d="M53 258v197l553 897h551v-785h182v-309h-182v-258h-409v258h-695zM483 567h265v262l6 226h-4q-37 -104 -107 -219z" />
<glyph unicode="5" horiz-adv-x="1193" d="M16 223l410 238q10 -74 45 -108t119 -34q68 0 106.5 33t38.5 99q0 57 -36.5 89.5t-114.5 32.5q-104 0 -158 -47l-348 66l90 760h899v-351h-565l-19 -139q-4 -33 -14 -71h2q35 43 104.5 64.5t153.5 21.5q133 0 228.5 -51.5t144.5 -140.5t49 -202q0 -174 -79 -286.5 t-208 -164.5t-280 -52q-193 0 -329 52t-239 191z" />
<glyph unicode="6" horiz-adv-x="1259" d="M74 676q0 356 173 526t464 170q182 0 316 -73.5t181 -235.5l-379 -178q-29 125 -147 125q-84 0 -136 -69t-52 -210v-31h2q37 63 108.5 97t190.5 34t216 -50t153.5 -143t56.5 -214q0 -207 -145.5 -325.5t-411.5 -118.5q-289 0 -439.5 168.5t-150.5 527.5zM551 428 q0 -55 32.5 -85t92.5 -30q59 0 92 30t33 85t-33 85t-92 30q-60 0 -92.5 -30t-32.5 -85z" />
<glyph unicode="7" horiz-adv-x="1331" d="M88 993v359h1192v-316q-236 -215 -327 -466t-91 -570h-467q0 297 99.5 534.5t324.5 458.5h-731z" />
<glyph unicode="8" horiz-adv-x="1298" d="M61 354q0 242 261 322v2q-111 39 -170.5 113.5t-59.5 179.5q0 184 148.5 289.5t408.5 105.5t408.5 -105.5t148.5 -289.5q0 -104 -59.5 -179t-169.5 -114v-2q260 -80 260 -322q0 -174 -154.5 -274t-433.5 -100t-433.5 100t-154.5 274zM516 418q0 -53 35 -84t98 -31 q64 0 98.5 31t34.5 84q0 55 -34.5 84.5t-98.5 29.5q-63 0 -98 -29.5t-35 -84.5zM524 928q0 -53 33 -84t92 -31t92 30.5t33 84.5q0 53 -32.5 83.5t-92.5 30.5q-59 0 -92 -30.5t-33 -83.5z" />
<glyph unicode="9" horiz-adv-x="1249" d="M43 901q0 223 147.5 347t419.5 124q586 1 586 -708q0 -360 -158.5 -522t-449.5 -162q-190 0 -320.5 68.5t-195.5 219.5l417 150q16 -96 109 -96q78 0 123 59t45 180v43h-6q-25 -53 -103.5 -91t-183.5 -38q-113 0 -211 53.5t-158.5 150.5t-60.5 222zM469 903 q0 -55 31.5 -85t93.5 -30q61 0 93 30t32 85t-32 85t-93 30q-62 0 -93.5 -30t-31.5 -85z" />
<glyph unicode=":" horiz-adv-x="626" d="M61 203q0 104 66 161.5t186 57.5q121 0 186.5 -57.5t65.5 -161.5t-65.5 -161.5t-186.5 -57.5t-186.5 57t-65.5 162zM61 826q0 104 66 161.5t186 57.5q121 0 186.5 -57.5t65.5 -161.5t-65.5 -161.5t-186.5 -57.5t-186.5 57t-65.5 162z" />
<glyph unicode=";" horiz-adv-x="626" d="M45 -213q113 47 185.5 99.5t105.5 125.5l-10 8q-27 -29 -66 -28q-84 0 -146.5 52t-62.5 151q0 115 66.5 171t185.5 56q133 0 199.5 -86t66.5 -219q0 -152 -84 -272.5t-241 -184.5zM57 825q0 104 65.5 161.5t186.5 57.5t186.5 -57t65.5 -162q0 -104 -65.5 -161.5 t-186.5 -57.5t-186.5 57.5t-65.5 161.5z" />
<glyph unicode="&#x3c;" horiz-adv-x="1236" d="M117 416v375l1024 436v-436l-660 -187l660 -188v-436z" />
<glyph unicode="=" horiz-adv-x="1236" d="M133 285v297h971v-297h-971zM133 750v297h971v-297h-971z" />
<glyph unicode="&#x3e;" horiz-adv-x="1236" d="M96 -20v436l660 188l-660 187v436l1024 -436v-375z" />
<glyph unicode="?" horiz-adv-x="1333" d="M57 1004q14 166 162 267t459 101q579 0 579 -387q0 -193 -103 -282t-290 -109l-35 -148h-383l-32 316q332 8 331 149q0 92 -98 93q-125 0 -127 -158zM401 182q0 94 62.5 145.5t177.5 51.5t177.5 -51.5t62.5 -145.5t-62.5 -145t-177.5 -51t-177.5 51t-62.5 145z" />
<glyph unicode="@" horiz-adv-x="1884" d="M78 457q0 268 118.5 470.5t326.5 313.5t468 111q238 0 421 -91.5t287.5 -275.5t104.5 -453q0 -186 -67.5 -303.5t-172 -169t-223.5 -51.5q-229 0 -317 164q-55 -84 -124 -124t-159 -40q-152 0 -235.5 103.5t-83.5 263.5q0 289 130 437.5t341 148.5q84 0 128 -47.5 t50 -98.5l43 121h346l-98 -553q-6 -39 -6 -70q0 -49 22.5 -69.5t73.5 -20.5q72 0 122 81t50 228q0 326 -171 485t-462 159q-209 0 -370.5 -85t-253 -247t-91.5 -387q0 -209 88.5 -354.5t231.5 -218t305 -72.5q154 0 239 25.5t154 78.5l99 -141q-98 -70 -207 -102.5 t-295 -32.5q-231 0 -415.5 95t-291 279.5t-106.5 442.5zM821 438q0 -117 68 -116q25 0 44 14t23 43l31 209q2 12 2 30q0 27 -9 37.5t-32 10.5q-30 0 -60 -29t-48.5 -81t-18.5 -118z" />
<glyph unicode="A" horiz-adv-x="1411" d="M-20 0l438 1352h573l441 -1352h-488l-61 258h-365l-63 -258h-475zM590 555h223l-108 451h-7l-53 -230z" />
<glyph unicode="B" horiz-adv-x="1441" d="M102 0v1352h775q256 -2 380.5 -91.5t124.5 -269.5q0 -125 -76.5 -208t-228.5 -103v-2q172 -18 256 -102t84 -220q0 -178 -120.5 -267t-366.5 -89h-828zM559 311h244q127 0 127 101q0 96 -127 96h-244v-197zM559 827h209q127 0 127 99q0 98 -127 98h-209v-197z" />
<glyph unicode="C" horiz-adv-x="1386" d="M59 676q0 219 83 375.5t238 238.5t368 82q238 0 405.5 -101.5t208.5 -307.5l-410 -160q-16 125 -59 168t-133 43q-106 0 -159.5 -82t-53.5 -256t51 -256t158 -82q96 0 139 43t55 141l422 -108q-104 -434 -624 -434q-213 0 -368 81.5t-238 238.5t-83 376z" />
<glyph unicode="D" horiz-adv-x="1466" d="M102 0v1352h664q315 0 478 -175.5t163 -500.5q0 -326 -163 -501t-478 -175h-664zM580 340h118q127 0 174.5 78t47.5 258t-47.5 258t-174.5 78h-118v-672z" />
<glyph unicode="E" horiz-adv-x="1282" d="M102 0v1352h1123v-351h-645v-167h520v-324h-520v-160h669v-350h-1147z" />
<glyph unicode="F" horiz-adv-x="1257" d="M102 0v1352h1121v-351h-643v-188h520v-350h-520v-463h-478z" />
<glyph unicode="G" horiz-adv-x="1478" d="M59 672q0 332 185.5 516t515.5 184q252 0 400.5 -86t230.5 -285l-445 -159q-27 172 -170 172q-119 0 -174 -81t-55 -257q0 -188 59.5 -269t186.5 -81q90 0 142 35.5t52 105.5v2h-227v293h626v-762h-315l-16 154q-104 -174 -367 -174q-178 0 -320.5 78.5t-225.5 234.5 t-83 379z" />
<glyph unicode="H" horiz-adv-x="1529" d="M102 0v1352h478v-498h370v498h477v-1352h-477v504h-370v-504h-478z" />
<glyph unicode="I" horiz-adv-x="681" d="M102 0v1352h478v-1352h-478z" />
<glyph unicode="J" horiz-adv-x="1345" d="M47 455q0 70 12 139l478 80q-10 -70 -11 -144q0 -104 34 -148t102 -44q70 0 102.5 60.5t32.5 193.5v760h477v-795q0 -276 -168 -426.5t-475 -150.5q-295 0 -439.5 126.5t-144.5 348.5z" />
<glyph unicode="K" horiz-adv-x="1468" d="M102 0v1352h478v-504l352 504h508l-414 -537l451 -815h-535l-252 506l-110 -152v-354h-478z" />
<glyph unicode="L" horiz-adv-x="1239" d="M102 0v1352h478v-1002h612v-350h-1090z" />
<glyph unicode="M" horiz-adv-x="1941" d="M102 0v1352h668l156 -600l59 -252h4l60 252l155 600h635v-1352h-416v469l7 455h-7l-262 -924h-381l-258 924h-8l6 -455v-469h-418z" />
<glyph unicode="N" horiz-adv-x="1527" d="M102 0v1352h516l324 -617l74 -164h4l-8 279v502h413v-1352h-516l-323 614l-74 166h-4l8 -278v-502h-414z" />
<glyph unicode="O" d="M59 676q0 219 83 375.5t238 238.5t368 82q323 0 504.5 -183t181.5 -513t-181.5 -513t-504.5 -183q-213 0 -368 81.5t-238 238.5t-83 376zM547 676q0 -176 48 -257t153 -81q104 0 151 81t47 257t-47 257t-151 81q-105 0 -153 -81t-48 -257z" />
<glyph unicode="P" horiz-adv-x="1445" d="M102 0v1352h717q567 0 567 -473q0 -219 -143 -334t-424 -115h-239v-430h-478zM580 758h161q88 0 128 30.5t40 96.5t-40 96.5t-128 30.5h-161v-254z" />
<glyph unicode="Q" d="M59 676q0 219 83 375.5t238 238.5t368 82q324 0 505 -183t181 -513q0 -299 -150.5 -479.5t-423.5 -210.5q6 -51 57.5 -73t157.5 -22q78 0 144.5 23t107.5 57l107 -288q-117 -111 -396 -111q-215 0 -323.5 93t-108.5 243q0 27 8 80q-264 37 -409.5 215t-145.5 473z M547 676q0 -176 48 -257t153 -81q104 0 151 81t47 257t-47 257t-151 81q-105 0 -153 -81t-48 -257z" />
<glyph unicode="R" horiz-adv-x="1443" d="M102 0v1352h734q270 0 408 -114t138 -339q0 -297 -243 -399l319 -500h-518l-240 449h-131v-449h-467zM569 762h170q90 0 128 27.5t38 97.5q0 68 -38 96.5t-128 28.5h-170v-250z" />
<glyph unicode="S" horiz-adv-x="1323" d="M20 170l205 324q86 -84 188.5 -124t235.5 -40q150 0 150 61q0 33 -47 49.5t-154 34.5q-156 29 -265.5 66t-192.5 125t-83 241q0 139 74 243.5t216 163t343 58.5t342.5 -47t280.5 -168l-209 -297q-92 86 -187.5 124t-211.5 38q-72 0 -115 -21.5t-43 -56.5q0 -23 41 -35 t143 -30q297 -53 427 -161t130 -302q0 -139 -80 -237.5t-217 -148.5t-307 -50q-240 0 -383 45t-281 145z" />
<glyph unicode="T" horiz-adv-x="1404" d="M41 1001v351h1323v-351h-422v-1001h-477v1001h-424z" />
<glyph unicode="U" horiz-adv-x="1449" d="M72 582v770h479v-807q0 -102 44 -154.5t130 -52.5t131 52t45 155v807h477v-770q0 -602 -653 -602t-653 602z" />
<glyph unicode="V" horiz-adv-x="1447" d="M-16 1352h497l187 -740l65 -264l62 260l190 744h479l-456 -1352h-568z" />
<glyph unicode="W" horiz-adv-x="2091" d="M-16 1352h514l157 -977l191 977h409l201 -971l154 971h495l-385 -1352h-506l-106 508l-53 346h-6l-54 -346l-104 -508h-524z" />
<glyph unicode="X" horiz-adv-x="1441" d="M4 0l449 674l-433 678h564l157 -338l160 338h520l-430 -666l469 -686h-575l-178 350l-164 -350h-539z" />
<glyph unicode="Y" horiz-adv-x="1460" d="M18 1352h476l143 -310l96 -245l96 245l144 310h469l-473 -883v-469h-477v469z" />
<glyph unicode="Z" horiz-adv-x="1304" d="M51 0v326l686 686h-678v340h1192v-326l-682 -686h705v-340h-1223z" />
<glyph unicode="[" horiz-adv-x="860" d="M172 -344v1780h645v-310h-246v-1161h246v-309h-645z" />
<glyph unicode="\" horiz-adv-x="999" d="M12 1434h437l538 -1577h-436z" />
<glyph unicode="]" horiz-adv-x="860" d="M43 -35h246v1161h-246v310h645v-1780h-645v309z" />
<glyph unicode="^" horiz-adv-x="1325" d="M47 727l422 748h387l422 -748h-401l-213 457l-215 -457h-402z" />
<glyph unicode="_" horiz-adv-x="1103" d="M0 -92h1104v-359h-1104v359z" />
<glyph unicode="`" horiz-adv-x="1024" d="M139 1495h420l123 -362h-332z" />
<glyph unicode="a" horiz-adv-x="1204" d="M33 223q0 129 92 206t307 124l203 45v41q0 47 -23.5 73.5t-68.5 26.5q-49 0 -78 -27.5t-31 -97.5l-389 60q16 176 147.5 273t376.5 97q272 0 402.5 -104t130.5 -317v-287q0 -84 69 -84q36 0 52 8l-37 -240q-68 -40 -148 -40h-4q-125 0 -209 44t-112 128 q-47 -80 -138.5 -126t-226.5 -46q-160 0 -237.5 62t-77.5 181zM475 307q0 -35 20.5 -53t51.5 -18q39 0 63.5 25.5t24.5 74.5v98l-68 -20q-43 -12 -67.5 -40t-24.5 -67z" />
<glyph unicode="b" horiz-adv-x="1284" d="M80 0v1434h471v-582q41 90 112.5 141t176.5 51q186 0 289.5 -141t103.5 -397q0 -252 -101.5 -389t-289.5 -137q-123 0 -210 69.5t-126 190.5l-12 -240h-414zM551 504q0 -102 25.5 -148.5t74.5 -46.5q54 0 80.5 44t26.5 159t-26.5 158t-80.5 43q-51 0 -75.5 -47.5 t-24.5 -145.5v-16z" />
<glyph unicode="c" horiz-adv-x="1179" d="M41 512q0 254 148.5 393t418.5 139q285 0 411 -101t130 -247l-434 -127v20q0 138 -82 138q-63 0 -91 -48t-28 -173q0 -123 29.5 -166t87.5 -43q43 0 65.5 34t26.5 101l422 -131q0 -88 -60.5 -160.5t-176 -116.5t-275.5 -44q-291 0 -441.5 137t-150.5 395z" />
<glyph unicode="d" horiz-adv-x="1284" d="M51 506q0 256 103.5 397t289.5 141q104 0 176 -51t113 -141v582h471v-1434h-424l-14 203q-45 -104 -127 -163.5t-197 -59.5q-188 0 -289.5 137t-101.5 389zM526 512q0 -115 27 -159t80 -44q49 0 74.5 46t25.5 149v16q0 98 -24.5 145.5t-75.5 47.5q-53 0 -80 -43t-27 -158 z" />
<glyph unicode="e" horiz-adv-x="1193" d="M41 512q0 254 148.5 393t418.5 139q264 0 404.5 -135t140.5 -364q0 -78 -10 -123h-651q10 -76 42.5 -102.5t98.5 -26.5q100 0 123 88l379 -102q-35 -147 -171.5 -223t-330.5 -76q-291 0 -441.5 137t-150.5 395zM492 596h221q-6 70 -30 103.5t-73 33.5q-53 0 -81.5 -30.5 t-36.5 -106.5z" />
<glyph unicode="f" horiz-adv-x="880" d="M6 707v317h137v41q0 215 133.5 312.5t333.5 97.5q188 0 277 -68l-31 -272q-23 16 -49.5 24t-67.5 8q-78 0 -117.5 -28.5t-39.5 -98.5v-16h290v-317h-258v-707h-471v707h-137z" />
<glyph unicode="g" horiz-adv-x="1183" d="M16 -219q0 68 46.5 118t152.5 70q-172 68 -172 230q0 72 47 129t127 86q-176 86 -176 280q0 350 553 350q117 0 201 -14q14 139 87.5 233.5t215.5 94.5q29 0 45 -2l39 -291q-35 8 -74 8q-59 0 -100 -23.5t-62 -60.5q201 -84 201 -295q0 -346 -553 -346q-129 0 -227 19 q-27 -8 -27 -33q0 -43 88 -43h354q416 0 416 -348q0 -193 -160.5 -288t-462.5 -95q-293 0 -426 55t-133 166zM356 -109q0 -25 57.5 -36t190.5 -11q125 0 181.5 12.5t56.5 39.5q0 16 -16.5 23t-57.5 7h-285q-76 0 -101.5 -7t-25.5 -28zM508 696q0 -49 22.5 -76.5t63.5 -27.5 t63.5 27.5t22.5 76.5t-22.5 77t-63.5 28t-63.5 -28t-22.5 -77z" />
<glyph unicode="h" horiz-adv-x="1269" d="M80 0v1434h471v-619q41 113 123 171t196 58q152 0 237 -90t85 -254v-700h-471v578q0 68 -16.5 94t-55.5 26q-51 0 -74.5 -38.5t-23.5 -122.5v-537h-471z" />
<glyph unicode="i" horiz-adv-x="630" d="M59 1286q0 106 58.5 151.5t197.5 45.5t197.5 -45t58.5 -152q0 -106 -58 -151t-198 -45q-139 0 -197.5 45t-58.5 151zM80 0v1024h471v-1024h-471z" />
<glyph unicode="j" horiz-adv-x="626" d="M-213 -377l57 273q37 -27 105 -27q66 0 98.5 35t32.5 110v1010h471v-1051q0 -217 -107.5 -315t-345.5 -98q-193 0 -311 63zM59 1286q0 109 57.5 153t196.5 44q144 0 201 -44t57 -153t-57 -152.5t-201 -43.5q-139 0 -196.5 44t-57.5 152z" />
<glyph unicode="k" horiz-adv-x="1347" d="M80 0v1434h471v-772l299 362h506l-365 -401l387 -623h-512l-184 358l-131 -159v-199h-471z" />
<glyph unicode="l" horiz-adv-x="698" d="M80 336v1098h471v-1026q0 -63 18.5 -91t65.5 -28q37 0 74 10l-21 -254q-37 -29 -110.5 -47t-143.5 -18q-190 0 -272 81.5t-82 274.5z" />
<glyph unicode="m" horiz-adv-x="1910" d="M80 0v1024h424l10 -223q45 119 135 181t221 62q117 0 194 -53t110 -151q49 100 134 152t203 52q152 0 237 -90t85 -254v-700h-471v578q0 68 -16.5 93t-55.5 25q-51 0 -74.5 -39t-23.5 -120v-537h-471v578q0 68 -16.5 93t-55.5 25q-51 0 -74.5 -39t-23.5 -120v-537h-471z " />
<glyph unicode="n" horiz-adv-x="1269" d="M80 0v1024h424l10 -223q45 119 135 181t221 62q152 0 237 -90t85 -254v-700h-471v578q0 68 -16.5 93t-55.5 25q-51 0 -74.5 -39t-23.5 -120v-537h-471z" />
<glyph unicode="o" horiz-adv-x="1224" d="M41 512q0 254 149.5 393t421.5 139q273 0 422.5 -139t149.5 -393t-149.5 -393t-422.5 -139q-272 0 -421.5 139t-149.5 393zM514 512q0 -88 8 -133t28.5 -63.5t61.5 -18.5t61.5 18.5t29 63.5t8.5 133t-8.5 133t-29 63.5t-61.5 18.5t-61.5 -18.5t-28.5 -63.5t-8 -133z" />
<glyph unicode="p" horiz-adv-x="1284" d="M80 -430v1454h414l12 -240q39 121 126 190.5t210 69.5q188 0 289.5 -137t101.5 -389q0 -256 -103.5 -397t-289.5 -141q-104 0 -176 51t-113 141v-602h-471zM551 504q0 -98 24.5 -145.5t75.5 -47.5q54 0 80.5 43t26.5 158t-26.5 159t-80.5 44q-49 0 -74.5 -46t-25.5 -149 v-16z" />
<glyph unicode="q" horiz-adv-x="1284" d="M51 518q0 252 101.5 389t289.5 137q123 0 210 -69.5t126 -190.5l13 240h413v-1454h-471v602q-41 -90 -112.5 -141t-176.5 -51q-186 0 -289.5 141t-103.5 397zM526 512q0 -115 27 -158t80 -43q51 0 75.5 47.5t24.5 145.5v16q0 102 -25.5 148.5t-74.5 46.5q-53 0 -80 -44 t-27 -159z" />
<glyph unicode="r" horiz-adv-x="909" d="M80 0v1024h424l10 -256q74 276 301 276h5q68 0 102 -24l-39 -385q-18 14 -53 23.5t-76 9.5q-94 0 -148.5 -45t-54.5 -131v-492h-471z" />
<glyph unicode="s" horiz-adv-x="1099" d="M12 131l207 250q59 -53 137 -86t164 -33q39 0 64.5 7t25.5 24q0 18 -34.5 33.5t-118.5 31.5q-221 43 -322.5 124t-101.5 206q0 90 60.5 171t185 133t309.5 52q180 0 302 -43t191 -106l-192 -227q-94 94 -279 94q-55 0 -79.5 -10.5t-24.5 -26.5q0 -25 125 -41 q236 -33 344 -114t108 -222q0 -160 -131 -264t-397 -104q-190 0 -321.5 35.5t-221.5 115.5z" />
<glyph unicode="t" horiz-adv-x="911" d="M2 707v317h158v217l471 131v-348h258v-317h-258v-289q0 -70 29.5 -99.5t93.5 -29.5q76 0 129 26l20 -266q-51 -31 -138 -50t-167 -19q-221 0 -329.5 85t-108.5 279v363h-158z" />
<glyph unicode="u" horiz-adv-x="1269" d="M78 332v692h471v-575q0 -68 17.5 -94.5t58.5 -26.5q94 0 94 161v535h471v-1024h-424l-10 217q-45 -119 -132 -178t-214 -59q-164 0 -248 85t-84 267z" />
<glyph unicode="v" horiz-adv-x="1204" d="M-20 1024h487l94 -504l37 -244h8l37 246l94 502h488l-330 -1024h-586z" />
<glyph unicode="w" horiz-adv-x="1929" d="M-18 1024h487l82 -489l31 -232h8l41 234l102 487h463l104 -494l39 -227h9l30 229l82 492h488l-279 -1024h-586l-73 315l-41 250h-8l-39 -248l-76 -317h-586z" />
<glyph unicode="x" horiz-adv-x="1284" d="M-23 0l355 520l-346 504h520l137 -297l141 297h514l-346 -512l355 -512h-521l-149 313l-145 -313h-515z" />
<glyph unicode="y" horiz-adv-x="1216" d="M-16 1024h514l92 -528l39 -240l45 242l102 526h461l-301 -909q-70 -207 -152 -327t-196.5 -174t-282.5 -54q-190 0 -315 67l86 297q33 -18 71.5 -26.5t110.5 -8.5q66 0 97.5 12.5t43.5 43.5l7 16l-130 301z" />
<glyph unicode="z" horiz-adv-x="1028" d="M45 0v270l320 353l96 94l-150 -4h-266v311h936v-270l-313 -348l-101 -99l168 4h266v-311h-956z" />
<glyph unicode="{" horiz-adv-x="954" d="M102 406v280q125 0 177.5 49t52.5 164v178q0 156 59.5 245t187.5 127t349 38v-281q-123 0 -178.5 -48t-55.5 -157v-215q0 -94 -44 -151t-134 -88q90 -31 134 -89.5t44 -152.5v-213q0 -111 55.5 -159t178.5 -48v-280q-221 0 -349 38t-187.5 127t-59.5 246v177 q0 115 -52.5 164t-177.5 49z" />
<glyph unicode="|" horiz-adv-x="761" d="M172 -344v1780h418v-1780h-418z" />
<glyph unicode="}" horiz-adv-x="954" d="M27 -115q123 0 178 48.5t55 158.5v213q0 94 44 152.5t134 89.5q-90 31 -134 88t-44 151v215q0 109 -55 157t-178 48v281q221 0 349 -38t187.5 -127t59.5 -245v-178q0 -115 52 -164t177 -49v-280q-125 0 -177 -49.5t-52 -163.5v-177q0 -158 -59.5 -246.5t-187.5 -126.5 t-349 -38v280z" />
<glyph unicode="~" horiz-adv-x="1300" d="M88 483q8 225 101.5 342t269.5 117q78 0 127 -19.5t108 -56.5q31 -23 50.5 -32t41.5 -9q35 0 53.5 22.5t24.5 78.5h348q-8 -226 -101 -342.5t-269 -116.5q-78 0 -127 19.5t-109 56.5q-31 23 -50 32t-42 9q-35 0 -53.5 -22.5t-24.5 -78.5h-348z" />
<glyph unicode="&#xa1;" horiz-adv-x="657" d="M84 8l49 565h393l49 -565v-336h-491v336zM90 842q0 94 62.5 145t177.5 51t177 -51t62 -145t-62.5 -145.5t-176.5 -51.5q-115 0 -177.5 51.5t-62.5 145.5z" />
<glyph unicode="&#xa2;" horiz-adv-x="1189" d="M59 512q0 242 136.5 380t382.5 150v187h118v-187q248 -12 359.5 -109t105.5 -237l-332 -108q-4 71 -39.5 116.5t-93.5 59.5v-506q119 25 135 158l328 -113q10 -137 -112.5 -225t-350.5 -98v-185h-118v187q-254 16 -386.5 152t-132.5 378zM465 506q0 -119 27.5 -174.5 t85.5 -69.5v500q-59 -16 -86 -74.5t-27 -181.5z" />
<glyph unicode="&#xa3;" horiz-adv-x="1273" d="M49 178q0 98 79 148.5t191 50.5q59 0 87 -2q-10 96 -58 180h-280v152h176q-57 80 -79 141t-22 133q0 102 57.5 191.5t175.5 144.5t290 55q465 0 534 -385l-375 -166q-29 131 -67.5 180.5t-102.5 49.5q-47 0 -76.5 -25t-29.5 -70q0 -68 69 -170l50 -79h383v-152h-330 q8 -41 8 -98q0 -78 -18 -150q76 -23 137 -22q123 0 110 147l261 -41q16 -55 16 -106q0 -80 -34 -149.5t-101.5 -112.5t-161.5 -43q-100 0 -176 32.5t-162 91.5q-119 -125 -291 -124q-113 0 -186.5 51t-73.5 147zM238 180q0 -27 18 -41t53 -14q39 0 60.5 21.5t31.5 74.5 q-41 14 -88 15q-37 0 -56 -14.5t-19 -41.5z" />
<glyph unicode="&#xa4;" horiz-adv-x="1298" d="M29 319l213 179q-33 86 -33 178q0 90 33 176l-213 178l264 264l186 -223q84 27 172 27q94 0 166 -27l187 223l266 -264l-213 -180q33 -82 33 -174t-33 -178l213 -179l-266 -264l-187 224q-72 -27 -166 -27q-88 0 -172 27l-186 -224zM543 676q0 -51 28.5 -81t79.5 -30 q49 0 77 30t28 81t-28 80.5t-77 29.5q-51 0 -79.5 -29.5t-28.5 -80.5z" />
<glyph unicode="&#xa5;" horiz-adv-x="1468" d="M18 1352h476l155 -373l84 -213h4l84 215l156 371h473l-463 -725l146 8h225v-121h-391v-125h391v-121h-391v-268h-465v268h-391v121h391v125h-391v121h225l145 -8z" />
<glyph unicode="&#xa6;" horiz-adv-x="581" d="M82 -344v801h418v-801h-418zM82 635v801h418v-801h-418z" />
<glyph unicode="&#xa7;" horiz-adv-x="1308" d="M37 541q0 197 137 311q-18 53 -18 115q0 186 135 295.5t373 109.5q190 0 300.5 -45t200.5 -145l-219 -211q-55 66 -115.5 92.5t-162.5 26.5q-90 0 -139.5 -23t-49.5 -57q0 -29 49.5 -46.5t176.5 -27.5q293 -23 429 -111t136 -247q0 -199 -137 -310q18 -51 18 -116 q0 -184 -133 -280.5t-375 -96.5q-190 0 -301 45t-201 145l219 211q55 -66 116 -92.5t163 -26.5t145 10.5t43 41.5q0 29 -50 47t-175 26q-293 20 -429 109.5t-136 249.5zM342 616q0 -39 56.5 -61.5t199.5 -34.5q213 -18 336 -69q31 20 31 51q0 39 -56.5 61.5t-199.5 34.5 q-213 18 -336 70q-31 -20 -31 -52z" />
<glyph unicode="&#xa8;" horiz-adv-x="1024" d="M57 1288q0 88 54.5 137.5t154.5 49.5q103 0 159 -48.5t56 -138.5t-56 -138t-159 -48q-100 0 -154.5 49t-54.5 137zM543 1288q0 88 54 137.5t155 49.5q102 0 158.5 -48.5t56.5 -138.5t-56.5 -138t-158.5 -48q-100 0 -154.5 49t-54.5 137z" />
<glyph unicode="&#xa9;" horiz-adv-x="1515" d="M49 676q0 209 88 366.5t249 243.5t372 86t371.5 -86t248.5 -243.5t88 -366.5t-88 -366.5t-248.5 -243.5t-371.5 -86t-372 86t-249 243.5t-88 366.5zM332 680q0 -197 118.5 -313.5t325.5 -116.5q170 0 269.5 68.5t152.5 224.5l-242 90q-23 -68 -61.5 -93.5t-103.5 -25.5 q-168 0 -168 162q0 80 43 123t125 43q63 0 96 -21.5t57 -79.5l223 103q-39 135 -134 200.5t-257 65.5q-207 0 -325.5 -116.5t-118.5 -313.5z" />
<glyph unicode="&#xaa;" horiz-adv-x="974" d="M53 770q0 92 65.5 147.5t221.5 88.5l145 32v25q0 35 -16 53.5t-49 18.5q-76 0 -78 -91l-281 43q10 125 105.5 195t271.5 70q197 0 290 -75t93 -226v-199q0 -61 51 -61q25 0 37 6l-26 -170q-53 -29 -135 -29q-78 0 -132.5 30.5t-74.5 90.5q-35 -55 -100.5 -88t-161.5 -33 q-225 0 -226 172zM80 240v231h811v-231h-811zM371 831q0 -25 14 -38t37 -13q29 0 46 18.5t17 53.5v70l-49 -15q-31 -8 -48 -28.5t-17 -47.5z" />
<glyph unicode="&#xab;" horiz-adv-x="1325" d="M49 543l256 401h385l-237 -401l237 -402h-385zM635 543l256 401h385l-237 -401l237 -402h-385z" />
<glyph unicode="&#xac;" horiz-adv-x="1236" d="M123 520v314h991v-680h-358v366h-633z" />
<glyph unicode="&#xad;" horiz-adv-x="1105" d="M154 377v358h798v-358h-798z" />
<glyph unicode="&#xae;" horiz-adv-x="1515" d="M49 676q0 209 88 366.5t249 243.5t372 86t371.5 -86t248.5 -243.5t88 -366.5t-88 -366.5t-248.5 -243.5t-371.5 -86t-372 86t-249 243.5t-88 366.5zM428 334h274v241h41l105 -241h328l-187 266q147 57 148 223q0 104 -75 176t-181 72h-453v-737zM702 723v151h99 q76 1 76 -75t-76 -76h-99z" />
<glyph unicode="&#xaf;" horiz-adv-x="1024" d="M115 1128v267h794v-267h-794z" />
<glyph unicode="&#xb0;" horiz-adv-x="1062" d="M74 963q0 190 121.5 299.5t336.5 109.5q213 0 335 -109.5t122 -299.5q0 -193 -122 -301.5t-335 -108.5q-215 0 -336.5 108.5t-121.5 301.5zM399 965q0 -57 37 -93t96 -36q60 0 96 35.5t36 93.5q0 57 -36 92t-96 35q-59 0 -96 -35t-37 -92z" />
<glyph unicode="&#xb1;" horiz-adv-x="1236" d="M92 2v287h1053v-287h-1053zM92 737v299h369v316h317v-316h367v-299h-367v-315h-317v315h-369z" />
<glyph unicode="&#xb2;" horiz-adv-x="839" d="M14 1206q0 143 104.5 221t287.5 78q205 0 299 -79.5t94 -190.5q0 -135 -133 -221q-78 -51 -193 -84v-4q92 10 225 10h105v-254h-758v199q102 43 178 86q115 66 173.5 128t58.5 111q0 55 -54 56q-74 0 -67 -134z" />
<glyph unicode="&#xb3;" horiz-adv-x="800" d="M-2 883l301 104q-2 -92 84 -92q63 0 63 57q0 25 -15 36t-48 11h-45v152h37q29 0 45 15.5t16 41.5q0 55 -55 56q-76 0 -78 -95l-289 93q16 125 120 184t259 59q174 0 265.5 -60.5t91.5 -176.5q0 -78 -45.5 -124t-133.5 -52v-11q193 0 193 -161q0 -117 -92 -183.5 t-258 -66.5q-172 0 -273.5 49t-142.5 164z" />
<glyph unicode="&#xb4;" horiz-adv-x="1024" d="M342 1133l123 362h420l-211 -362h-332z" />
<glyph unicode="&#xb5;" horiz-adv-x="1271" d="M80 -430v1454h471v-575q0 -68 17.5 -94.5t58.5 -26.5q94 0 94 161v535h471v-1024h-424l-10 199q-61 -180 -207 -211v-418h-471z" />
<glyph unicode="&#xb6;" horiz-adv-x="1656" d="M61 903q0 229 144.5 339t449.5 110h899v-1557h-374v1204h-193v-1204h-375v664q-276 2 -413.5 109.5t-137.5 334.5z" />
<glyph unicode="&#xb7;" horiz-adv-x="626" d="M61 721q0 104 66 161.5t186 57.5q121 0 186.5 -57.5t65.5 -161.5t-65.5 -161.5t-186.5 -57.5t-186.5 57t-65.5 162z" />
<glyph unicode="&#xb8;" horiz-adv-x="1024" d="M223 -350l92 194q57 -57 152 -57q51 0 81 23.5t30 66.5q0 47 -51.5 79t-182.5 48l82 82q193 -12 297 -85t104 -185q0 -135 -90 -195.5t-239 -60.5q-102 0 -167 24.5t-108 65.5z" />
<glyph unicode="&#xb9;" horiz-adv-x="686" d="M51 1112v264q74 6 166 44t127 75h272v-813h-323v395q0 49 6 125q-125 -88 -248 -90z" />
<glyph unicode="&#xba;" horiz-adv-x="950" d="M70 975q0 178 108.5 277.5t296.5 99.5t297 -99.5t109 -277.5t-108.5 -277.5t-297.5 -99.5q-188 0 -296.5 99.5t-108.5 277.5zM74 240v231h803v-231h-803zM406 975q0 -96 15 -134t54 -38t54.5 38t15.5 134q0 98 -15.5 135t-54.5 37t-54 -38t-15 -134z" />
<glyph unicode="&#xbb;" horiz-adv-x="1325" d="M49 141l238 402l-238 401h385l256 -401l-256 -402h-385zM635 141l237 402l-237 401h385l256 -401l-256 -402h-385z" />
<glyph unicode="&#xbc;" horiz-adv-x="1943" d="M51 979v264q74 6 166 44t127 75h272v-813h-323v395q0 49 6 125q-125 -88 -248 -90zM328 0l974 1354h302l-975 -1354h-301zM1108 145v144l303 518h397v-451h109v-211h-109v-153h-287v153h-413zM1378 356h143v109q0 47 4 129l2 41h-6q-20 -59 -59 -129z" />
<glyph unicode="&#xbd;" horiz-adv-x="2084" d="M51 979v264q74 6 166 44t127 75h272v-813h-323v395q0 49 6 125q-125 -88 -248 -90zM328 0l974 1354h302l-975 -1354h-301zM1259 516q0 143 104.5 221t287.5 78q205 0 299 -80t94 -190q0 -135 -133 -221q-78 -51 -193 -84v-4q92 10 225 10h105v-254h-758v198 q100 43 178 86q115 66 173.5 128.5t58.5 111.5q0 55 -54 55q-74 0 -67 -133z" />
<glyph unicode="&#xbe;" horiz-adv-x="2058" d="M-2 750l301 104q-2 -92 84 -92q63 0 63 57q0 25 -15 36t-48 11h-45v152h37q29 0 45 15.5t16 41.5q0 55 -55 55q-76 0 -78 -94l-289 92q16 125 120 184.5t259 59.5q174 0 265.5 -60.5t91.5 -176.5q0 -78 -45.5 -124t-133.5 -53v-10q193 0 193 -162q0 -117 -92 -183 t-258 -66q-172 0 -273.5 49t-142.5 164zM443 0l974 1354h302l-975 -1354h-301zM1223 145v144l303 518h397v-451h109v-211h-109v-153h-287v153h-413zM1493 356h143v109q0 47 4 129l2 41h-6q-20 -59 -59 -129z" />
<glyph unicode="&#xbf;" horiz-adv-x="1333" d="M76 41q0 193 103.5 282t289.5 109l35 148h383l33 -316q-332 -8 -332 -149q0 -92 98 -92q125 0 127 157l463 -157q-14 -166 -161.5 -267.5t-459.5 -101.5q-579 0 -579 387zM453 844q0 94 62.5 145t176.5 51q115 0 177.5 -51t62.5 -145t-62.5 -145.5t-177.5 -51.5 q-114 0 -176.5 51.5t-62.5 145.5z" />
<glyph unicode="&#xc0;" horiz-adv-x="1411" d="M-20 0l438 1352h573l441 -1352h-488l-61 258h-365l-63 -258h-475zM319 1794h422l109 -342h-334zM590 555h223l-108 451h-7l-53 -230z" />
<glyph unicode="&#xc1;" horiz-adv-x="1411" d="M-20 0l438 1352h573l441 -1352h-488l-61 258h-365l-63 -258h-475zM518 1452l109 342h422l-197 -342h-334zM590 555h223l-108 451h-7l-53 -230z" />
<glyph unicode="&#xc2;" horiz-adv-x="1411" d="M-20 0l438 1352h573l441 -1352h-488l-61 258h-365l-63 -258h-475zM264 1452l221 342h439l221 -342h-330l-110 141l-111 -141h-330zM590 555h223l-108 451h-7l-53 -230z" />
<glyph unicode="&#xc3;" horiz-adv-x="1411" d="M-20 0l438 1352h573l441 -1352h-488l-61 258h-365l-63 -258h-475zM275 1444q8 360 299 361q63 0 100 -16.5t80 -49.5q23 -18 40 -27.5t38 -9.5q29 0 43 23.5t18 75.5h242q-8 -361 -299 -361q-63 0 -100 16.5t-80 49.5q-23 18 -40 27t-38 9q-53 0 -61 -98h-242zM590 555 h223l-108 451h-7l-53 -230z" />
<glyph unicode="&#xc4;" horiz-adv-x="1411" d="M-20 0l438 1352h573l441 -1352h-488l-61 258h-365l-63 -258h-475zM250 1616q0 88 54.5 137.5t154.5 49.5q103 0 159 -48.5t56 -138.5t-56 -138t-159 -48q-100 0 -154.5 49t-54.5 137zM590 555h223l-108 451h-7l-53 -230zM736 1616q0 88 54 137.5t155 49.5 q102 0 158.5 -48.5t56.5 -138.5t-56.5 -138t-158.5 -48q-100 0 -154.5 49t-54.5 137z" />
<glyph unicode="&#xc5;" horiz-adv-x="1411" d="M-20 0l450 1327q-63 63 -63 168q0 129 90 205t250 76t250 -76t90 -205q0 -104 -68 -168l453 -1327h-488l-61 258h-365l-63 -258h-475zM590 555h223l-53 221l-53 230h-11l-51 -230zM604 1477q0 -47 26.5 -72t76.5 -25q49 0 75.5 25t26.5 72t-26.5 71.5t-75.5 24.5 q-50 0 -76.5 -24.5t-26.5 -71.5z" />
<glyph unicode="&#xc6;" horiz-adv-x="1851" d="M-20 0l438 1352h1376v-330h-534v-197h409v-305h-409v-190h559v-330h-998v379h-276l-94 -379h-471zM612 657h209v381h-114z" />
<glyph unicode="&#xc7;" horiz-adv-x="1386" d="M59 676q0 219 83 375.5t238 238.5t368 82q238 0 405.5 -101.5t208.5 -307.5l-410 -160q-16 125 -59 168t-133 43q-106 0 -159.5 -82t-53.5 -256t51 -256t158 -82q96 0 139 43t55 141l422 -108q-82 -346 -430 -416q98 -72 98 -182q0 -135 -90 -195.5t-239 -60.5 q-102 0 -167 24.5t-108 65.5l92 194q57 -57 152 -57q51 0 81 23.5t30 66.5q0 72 -115 105q-291 23 -454 204t-163 490z" />
<glyph unicode="&#xc8;" horiz-adv-x="1282" d="M102 0v1352h1123v-351h-645v-167h520v-324h-520v-160h669v-350h-1147zM317 1794h422l109 -342h-334z" />
<glyph unicode="&#xc9;" horiz-adv-x="1282" d="M102 0v1352h1123v-351h-645v-167h520v-324h-520v-160h669v-350h-1147zM467 1452l108 342h422l-196 -342h-334z" />
<glyph unicode="&#xca;" horiz-adv-x="1282" d="M102 0v1352h1123v-351h-645v-167h520v-324h-520v-160h669v-350h-1147zM201 1452l221 342h438l221 -342h-329l-111 141l-111 -141h-329z" />
<glyph unicode="&#xcb;" horiz-adv-x="1282" d="M102 0v1352h1123v-351h-645v-167h520v-324h-520v-160h669v-350h-1147zM186 1616q0 88 54.5 137.5t154.5 49.5q103 0 159 -48.5t56 -138.5t-56 -138t-159 -48q-100 0 -154.5 49t-54.5 137zM672 1616q0 88 54 137.5t155 49.5q102 0 158.5 -48.5t56.5 -138.5t-56.5 -138 t-158.5 -48q-100 0 -154.5 49t-54.5 137z" />
<glyph unicode="&#xcc;" horiz-adv-x="681" d="M-45 1794h422l108 -342h-333zM102 0v1352h478v-1352h-478z" />
<glyph unicode="&#xcd;" horiz-adv-x="681" d="M102 0v1352h478v-1352h-478zM154 1452l108 342h422l-197 -342h-333z" />
<glyph unicode="&#xce;" horiz-adv-x="681" d="M-100 1452l221 342h438l221 -342h-329l-111 141l-111 -141h-329zM102 0v1352h478v-1352h-478z" />
<glyph unicode="&#xcf;" horiz-adv-x="681" d="M-94 1616q0 88 52 137t148 49q99 0 154 -49t55 -137t-55 -137t-154 -49q-96 0 -148 49t-52 137zM102 0v1352h478v-1352h-478zM367 1616q0 88 52 137t148 49q99 0 154 -49t55 -137t-55 -137t-154 -49q-96 0 -148 49t-52 137z" />
<glyph unicode="&#xd0;" horiz-adv-x="1527" d="M12 571v197h152v584h663q316 0 478.5 -175.5t162.5 -500.5q0 -326 -162.5 -501t-478.5 -175h-663v571h-152zM641 340h119q127 0 174 78t47 258t-47 258t-174 78h-119v-244h176v-197h-176v-231z" />
<glyph unicode="&#xd1;" horiz-adv-x="1527" d="M102 0v1352h516l324 -617l74 -164h4l-8 279v502h413v-1352h-516l-323 614l-74 166h-4l8 -278v-502h-414zM334 1444q8 360 299 361q63 0 100 -16.5t80 -49.5q23 -18 40 -27.5t38 -9.5q29 0 43 23.5t18 75.5h242q-8 -361 -299 -361q-63 0 -100 16.5t-80 49.5q-23 18 -40 27 t-38 9q-53 0 -61 -98h-242z" />
<glyph unicode="&#xd2;" d="M59 676q0 219 83 375.5t238 238.5t368 82q323 0 504.5 -183t181.5 -513t-181.5 -513t-504.5 -183q-213 0 -368 81.5t-238 238.5t-83 376zM362 1794h422l109 -342h-334zM547 676q0 -176 48 -257t153 -81q104 0 151 81t47 257t-47 257t-151 81q-105 0 -153 -81t-48 -257z " />
<glyph unicode="&#xd3;" d="M59 676q0 219 83 375.5t238 238.5t368 82q323 0 504.5 -183t181.5 -513t-181.5 -513t-504.5 -183q-213 0 -368 81.5t-238 238.5t-83 376zM547 676q0 -176 48 -257t153 -81q104 0 151 81t47 257t-47 257t-151 81q-105 0 -153 -81t-48 -257zM561 1452l109 342h422 l-197 -342h-334z" />
<glyph unicode="&#xd4;" d="M59 676q0 219 83 375.5t238 238.5t368 82q323 0 504.5 -183t181.5 -513t-181.5 -513t-504.5 -183q-213 0 -368 81.5t-238 238.5t-83 376zM307 1452l221 342h439l221 -342h-330l-110 141l-111 -141h-330zM547 676q0 -176 48 -257t153 -81q104 0 151 81t47 257t-47 257 t-151 81q-105 0 -153 -81t-48 -257z" />
<glyph unicode="&#xd5;" d="M59 676q0 219 83 375.5t238 238.5t368 82q323 0 504.5 -183t181.5 -513t-181.5 -513t-504.5 -183q-213 0 -368 81.5t-238 238.5t-83 376zM318 1444q8 360 299 361q63 0 100 -16.5t80 -49.5q23 -18 40 -27.5t38 -9.5q29 0 43 23.5t18 75.5h242q-8 -361 -299 -361 q-63 0 -100 16.5t-80 49.5q-23 18 -40 27t-38 9q-53 0 -61 -98h-242zM547 676q0 -176 48 -257t153 -81q104 0 151 81t47 257t-47 257t-151 81q-105 0 -153 -81t-48 -257z" />
<glyph unicode="&#xd6;" d="M59 676q0 219 83 375.5t238 238.5t368 82q323 0 504.5 -183t181.5 -513t-181.5 -513t-504.5 -183q-213 0 -368 81.5t-238 238.5t-83 376zM293 1616q0 88 54.5 137.5t154.5 49.5q103 0 159 -48.5t56 -138.5t-56 -138t-159 -48q-100 0 -154.5 49t-54.5 137zM547 676 q0 -176 48 -257t153 -81q104 0 151 81t47 257t-47 257t-151 81q-105 0 -153 -81t-48 -257zM779 1616q0 88 54 137.5t155 49.5q102 0 158.5 -48.5t56.5 -138.5t-56.5 -138t-158.5 -48q-100 0 -154.5 49t-54.5 137z" />
<glyph unicode="&#xd7;" horiz-adv-x="1236" d="M74 377l303 303l-303 303l241 242l303 -303l304 303l241 -242l-303 -303l303 -303l-241 -242l-304 303l-303 -303z" />
<glyph unicode="&#xd8;" d="M59 676q0 219 83 375.5t238 238.5t368 82q217 0 372 -84l76 105h195l-146 -197q189 -182 189 -520q0 -330 -181.5 -513t-504.5 -183q-217 0 -375 86l-78 -109h-197l148 201q-92 90 -139.5 221t-47.5 297zM547 676q0 -86 8 -137l311 436q-45 39 -118 39q-105 0 -153 -81 t-48 -257zM635 371q45 -33 113 -33q104 0 151 81t47 257q0 70 -6 121z" />
<glyph unicode="&#xd9;" horiz-adv-x="1449" d="M72 582v770h479v-807q0 -102 44 -154.5t130 -52.5t131 52t45 155v807h477v-770q0 -602 -653 -602t-653 602zM340 1794h422l108 -342h-333z" />
<glyph unicode="&#xda;" horiz-adv-x="1449" d="M72 582v770h479v-807q0 -102 44 -154.5t130 -52.5t131 52t45 155v807h477v-770q0 -602 -653 -602t-653 602zM539 1452l108 342h422l-197 -342h-333z" />
<glyph unicode="&#xdb;" horiz-adv-x="1449" d="M72 582v770h479v-807q0 -102 44 -154.5t130 -52.5t131 52t45 155v807h477v-770q0 -602 -653 -602t-653 602zM285 1452l221 342h438l221 -342h-329l-111 141l-111 -141h-329z" />
<glyph unicode="&#xdc;" horiz-adv-x="1449" d="M72 582v770h479v-807q0 -102 44 -154.5t130 -52.5t131 52t45 155v807h477v-770q0 -602 -653 -602t-653 602zM270 1616q0 88 54.5 137.5t154.5 49.5q103 0 159 -48.5t56 -138.5t-56 -138t-159 -48q-100 0 -154.5 49t-54.5 137zM756 1616q0 88 54 137.5t155 49.5 q102 0 158.5 -48.5t56.5 -138.5t-56.5 -138t-158.5 -48q-100 0 -154.5 49t-54.5 137z" />
<glyph unicode="&#xdd;" horiz-adv-x="1460" d="M18 1352h476l143 -310l96 -245l96 245l144 310h469l-473 -883v-469h-477v469zM543 1452l108 342h422l-196 -342h-334z" />
<glyph unicode="&#xde;" horiz-adv-x="1417" d="M102 0v1352h478v-183h223q266 0 411.5 -121.5t143.5 -357.5q2 -236 -143.5 -357.5t-411.5 -121.5h-223v-211h-478zM580 547h145q158 0 156 143q2 141 -156 141h-145v-284z" />
<glyph unicode="&#xdf;" horiz-adv-x="1363" d="M80 0v895q0 272 154.5 410.5t494.5 138.5q274 0 426 -108.5t152 -297.5q0 -88 -42 -163.5t-119 -119.5t-177 -44v-4q159 0 259.5 -93.5t100.5 -255.5q0 -104 -48 -190t-149.5 -137t-252.5 -51q-178 0 -279 65l62 297q23 -25 46 -35t62 -10q49 0 78 34t29 95q0 57 -33 87 t-96 30h-113l57 311h53q51 2 80 39t29 102q0 61 -35 96t-92 35q-96 0 -136 -55t-40 -188v-883h-471z" />
<glyph unicode="&#xe0;" horiz-adv-x="1204" d="M33 223q0 129 92 206t307 124l203 45v41q0 47 -23.5 73.5t-68.5 26.5q-49 0 -78 -27.5t-31 -97.5l-389 60q16 176 147.5 273t376.5 97q272 0 402.5 -104t130.5 -317v-287q0 -84 69 -84q36 0 52 8l-37 -240q-70 -41 -152 -40q-125 0 -209 44t-112 128q-47 -80 -138.5 -126 t-226.5 -46q-160 0 -237.5 62t-77.5 181zM194 1495h420l123 -362h-332zM475 307q0 -35 20.5 -53t51.5 -18q39 0 63.5 25.5t24.5 74.5v98l-68 -20q-43 -12 -67.5 -40t-24.5 -67z" />
<glyph unicode="&#xe1;" horiz-adv-x="1204" d="M33 223q0 129 92 206t307 124l203 45v41q0 47 -23.5 73.5t-68.5 26.5q-49 0 -78 -27.5t-31 -97.5l-389 60q16 176 147.5 273t376.5 97q272 0 402.5 -104t130.5 -317v-287q0 -84 69 -84q36 0 52 8l-37 -240q-70 -41 -152 -40q-125 0 -209 44t-112 128q-47 -80 -138.5 -126 t-226.5 -46q-160 0 -237.5 62t-77.5 181zM373 1133l123 362h420l-211 -362h-332zM475 307q0 -35 20.5 -53t51.5 -18q39 0 63.5 25.5t24.5 74.5v98l-68 -20q-43 -12 -67.5 -40t-24.5 -67z" />
<glyph unicode="&#xe2;" horiz-adv-x="1204" d="M33 223q0 129 92 206t307 124l203 45v41q0 47 -23.5 73.5t-68.5 26.5q-49 0 -78 -27.5t-31 -97.5l-389 60q16 176 147.5 273t376.5 97q272 0 402.5 -104t130.5 -317v-287q0 -84 69 -84q36 0 52 8l-37 -240q-70 -41 -152 -40q-125 0 -209 44t-112 128q-47 -80 -138.5 -126 t-226.5 -46q-160 0 -237.5 62t-77.5 181zM131 1120l217 363h438l217 -363h-319l-117 146l-117 -146h-319zM475 307q0 -35 20.5 -53t51.5 -18q39 0 63.5 25.5t24.5 74.5v98l-68 -20q-43 -12 -67.5 -40t-24.5 -67z" />
<glyph unicode="&#xe3;" horiz-adv-x="1204" d="M33 223q0 129 92 206t307 124l203 45v41q0 47 -23.5 73.5t-68.5 26.5q-49 0 -78 -27.5t-31 -97.5l-389 60q16 176 147.5 273t376.5 97q272 0 402.5 -104t130.5 -317v-287q0 -84 69 -84q36 0 52 8l-37 -240q-70 -41 -152 -40q-125 0 -209 44t-112 128q-47 -80 -138.5 -126 t-226.5 -46q-160 0 -237.5 62t-77.5 181zM137 1116q8 360 299 361q63 0 100 -16.5t80 -49.5q23 -18 40 -27.5t38 -9.5q29 0 43 23.5t18 75.5h242q-8 -361 -299 -361q-63 0 -100 16.5t-80 49.5q-23 18 -40 27t-38 9q-53 0 -61 -98h-242zM475 307q0 -35 20.5 -53t51.5 -18 q39 0 63.5 25.5t24.5 74.5v98l-68 -20q-43 -12 -67.5 -40t-24.5 -67z" />
<glyph unicode="&#xe4;" horiz-adv-x="1204" d="M33 223q0 129 92 206t307 124l203 45v41q0 47 -23.5 73.5t-68.5 26.5q-49 0 -78 -27.5t-31 -97.5l-389 60q16 176 147.5 273t376.5 97q272 0 402.5 -104t130.5 -317v-287q0 -84 69 -84q36 0 52 8l-37 -240q-70 -41 -152 -40q-125 0 -209 44t-112 128q-47 -80 -138.5 -126 t-226.5 -46q-160 0 -237.5 62t-77.5 181zM112 1288q0 88 54.5 137.5t154.5 49.5q103 0 159 -48.5t56 -138.5t-56 -138t-159 -48q-100 0 -154.5 49t-54.5 137zM475 307q0 -35 20.5 -53t51.5 -18q39 0 63.5 25.5t24.5 74.5v98l-68 -20q-43 -12 -67.5 -40t-24.5 -67zM598 1288 q0 88 54 137.5t155 49.5q102 0 158.5 -48.5t56.5 -138.5t-56.5 -138t-158.5 -48q-100 0 -154.5 49t-54.5 137z" />
<glyph unicode="&#xe5;" horiz-adv-x="1204" d="M33 223q0 129 92 206t307 124l203 45v41q0 47 -23.5 73.5t-68.5 26.5q-49 0 -78 -27.5t-31 -97.5l-389 60q16 176 147.5 273t376.5 97q272 0 402.5 -104t130.5 -317v-287q0 -84 69 -84q36 0 52 8l-37 -240q-70 -41 -152 -40q-125 0 -209 44t-112 128q-47 -80 -138.5 -126 t-226.5 -46q-160 0 -237.5 62t-77.5 181zM284 1348q0 121 76 186t213 65t213 -65.5t76 -185.5q0 -121 -76 -186.5t-213 -65.5t-213 65.5t-76 186.5zM475 307q0 -35 20.5 -53t51.5 -18q39 0 63.5 25.5t24.5 74.5v98l-68 -20q-43 -12 -67.5 -40t-24.5 -67zM491 1348 q0 -39 21.5 -59.5t60.5 -20.5t60.5 20.5t21.5 59.5t-21.5 59t-60.5 20t-60.5 -20.5t-21.5 -58.5z" />
<glyph unicode="&#xe6;" horiz-adv-x="1787" d="M33 219q0 92 38 152.5t119.5 100.5t223.5 69l223 47v51q0 102 -94 102q-53 0 -78 -27.5t-31 -99.5l-389 62q14 172 132 270t349 98q115 0 210 -32.5t161 -93.5q121 127 326 126q250 0 387 -135t137 -364q0 -78 -10 -123h-650q12 -74 52.5 -101.5t107.5 -27.5 q49 0 69.5 20.5t33.5 67.5l379 -102q-35 -147 -171.5 -223t-330.5 -76q-270 0 -387 190q-61 -86 -181 -138t-292 -52t-253 64.5t-81 174.5zM465 299q0 -39 19.5 -60.5t56.5 -21.5q41 0 68.5 26.5t27.5 86.5v94l-68 -16q-55 -14 -79.5 -39t-24.5 -70zM1085 584h222 q-4 78 -28 113.5t-75 35.5q-57 0 -83.5 -32.5t-35.5 -116.5z" />
<glyph unicode="&#xe7;" horiz-adv-x="1179" d="M41 512q0 254 148.5 393t418.5 139q285 0 411 -101t130 -247l-434 -127q6 158 -82 158q-63 0 -91 -48t-28 -173q0 -123 29.5 -166t87.5 -43q43 0 65.5 34t26.5 101l422 -131q0 -102 -81 -183t-230 -118q104 -72 104 -184q0 -135 -90 -195.5t-240 -60.5 q-102 0 -166.5 24.5t-107.5 65.5l92 194q57 -57 152 -57q51 0 80.5 23.5t29.5 66.5q0 70 -113 105q-262 12 -398 149t-136 381z" />
<glyph unicode="&#xe8;" horiz-adv-x="1193" d="M41 512q0 254 148.5 393t418.5 139q264 0 404.5 -135t140.5 -364q0 -78 -10 -123h-651q10 -76 42.5 -102.5t98.5 -26.5q100 0 123 88l379 -102q-35 -147 -171.5 -223t-330.5 -76q-291 0 -441.5 137t-150.5 395zM233 1495h420l123 -362h-332zM492 596h221q-6 70 -30 103.5 t-73 33.5q-53 0 -81.5 -30.5t-36.5 -106.5z" />
<glyph unicode="&#xe9;" horiz-adv-x="1193" d="M41 512q0 254 148.5 393t418.5 139q264 0 404.5 -135t140.5 -364q0 -78 -10 -123h-651q10 -76 42.5 -102.5t98.5 -26.5q100 0 123 88l379 -102q-35 -147 -171.5 -223t-330.5 -76q-291 0 -441.5 137t-150.5 395zM412 1133l123 362h420l-211 -362h-332zM492 596h221 q-6 70 -30 103.5t-73 33.5q-53 0 -81.5 -30.5t-36.5 -106.5z" />
<glyph unicode="&#xea;" horiz-adv-x="1193" d="M41 512q0 254 148.5 393t418.5 139q264 0 404.5 -135t140.5 -364q0 -78 -10 -123h-651q10 -76 42.5 -102.5t98.5 -26.5q100 0 123 88l379 -102q-35 -147 -171.5 -223t-330.5 -76q-291 0 -441.5 137t-150.5 395zM170 1120l217 363h438l217 -363h-319l-117 146l-117 -146 h-319zM492 596h221q-6 70 -30 103.5t-73 33.5q-53 0 -81.5 -30.5t-36.5 -106.5z" />
<glyph unicode="&#xeb;" horiz-adv-x="1193" d="M41 512q0 254 148.5 393t418.5 139q264 0 404.5 -135t140.5 -364q0 -78 -10 -123h-651q10 -76 42.5 -102.5t98.5 -26.5q100 0 123 88l379 -102q-35 -147 -171.5 -223t-330.5 -76q-291 0 -441.5 137t-150.5 395zM151 1288q0 88 54.5 137.5t154.5 49.5q103 0 159 -48.5 t56 -138.5t-56 -138t-159 -48q-100 0 -154.5 49t-54.5 137zM492 596h221q-6 70 -30 103.5t-73 33.5q-53 0 -81.5 -30.5t-36.5 -106.5zM637 1288q0 88 54 137.5t155 49.5q102 0 158.5 -48.5t56.5 -138.5t-56.5 -138t-158.5 -48q-100 0 -154.5 49t-54.5 137z" />
<glyph unicode="&#xec;" horiz-adv-x="630" d="M-58 1495h420l123 -362h-332zM80 0v1024h471v-1024h-471z" />
<glyph unicode="&#xed;" horiz-adv-x="630" d="M80 0v1024h471v-1024h-471zM121 1133l123 362h420l-211 -362h-332z" />
<glyph unicode="&#xee;" horiz-adv-x="630" d="M-121 1120l217 363h438l217 -363h-319l-117 146l-117 -146h-319zM80 0v1024h471v-1024h-471z" />
<glyph unicode="&#xef;" horiz-adv-x="630" d="M-100 1288q0 193 196 193q197 0 197 -193t-197 -192q-196 -1 -196 192zM80 0v1024h471v-1024h-471zM338 1288q0 193 197 193t196 -193q0 -193 -196 -192q-197 -1 -197 192z" />
<glyph unicode="&#xf0;" horiz-adv-x="1214" d="M55 504q0 248 139.5 386t374.5 138q188 0 254 -139q-37 156 -143 276l-305 -51l-23 123l238 20q-84 76 -271 211h379q106 -51 207 -151l256 55l31 -123l-213 -16q193 -248 192 -592q0 -246 -58 -389t-184 -207.5t-337 -64.5q-250 0 -393.5 138t-143.5 386zM528 504 q0 -117 21.5 -162t77.5 -45q59 0 81.5 44t22.5 163q0 137 -22.5 187t-81.5 50q-57 0 -78 -50t-21 -187z" />
<glyph unicode="&#xf1;" horiz-adv-x="1269" d="M80 0v1024h424l10 -223q45 119 135 181t221 62q152 0 237 -90t85 -254v-700h-471v578q0 68 -16.5 93t-55.5 25q-51 0 -74.5 -39t-23.5 -120v-537h-471zM203 1116q8 360 299 361q63 0 100 -16.5t80 -49.5q23 -18 40 -27.5t38 -9.5q29 0 43 23.5t18 75.5h242 q-8 -361 -299 -361q-63 0 -100 16.5t-80 49.5q-23 18 -40 27t-38 9q-53 0 -61 -98h-242z" />
<glyph unicode="&#xf2;" horiz-adv-x="1224" d="M41 512q0 254 149.5 393t421.5 139q273 0 422.5 -139t149.5 -393t-149.5 -393t-422.5 -139q-272 0 -421.5 139t-149.5 393zM239 1495h420l123 -362h-332zM514 512q0 -88 8 -133t28.5 -63.5t61.5 -18.5t61.5 18.5t29 63.5t8.5 133t-8.5 133t-29 63.5t-61.5 18.5 t-61.5 -18.5t-28.5 -63.5t-8 -133z" />
<glyph unicode="&#xf3;" horiz-adv-x="1224" d="M41 512q0 254 149.5 393t421.5 139q273 0 422.5 -139t149.5 -393t-149.5 -393t-422.5 -139q-272 0 -421.5 139t-149.5 393zM418 1133l123 362h420l-211 -362h-332zM514 512q0 -88 8 -133t28.5 -63.5t61.5 -18.5t61.5 18.5t29 63.5t8.5 133t-8.5 133t-29 63.5t-61.5 18.5 t-61.5 -18.5t-28.5 -63.5t-8 -133z" />
<glyph unicode="&#xf4;" horiz-adv-x="1224" d="M41 512q0 254 149.5 393t421.5 139q273 0 422.5 -139t149.5 -393t-149.5 -393t-422.5 -139q-272 0 -421.5 139t-149.5 393zM176 1120l217 363h438l217 -363h-319l-117 146l-117 -146h-319zM514 512q0 -88 8 -133t28.5 -63.5t61.5 -18.5t61.5 18.5t29 63.5t8.5 133 t-8.5 133t-29 63.5t-61.5 18.5t-61.5 -18.5t-28.5 -63.5t-8 -133z" />
<glyph unicode="&#xf5;" horiz-adv-x="1224" d="M41 512q0 254 149.5 393t421.5 139q273 0 422.5 -139t149.5 -393t-149.5 -393t-422.5 -139q-272 0 -421.5 139t-149.5 393zM182 1116q8 360 299 361q63 0 100 -16.5t80 -49.5q23 -18 40 -27.5t38 -9.5q29 0 43 23.5t18 75.5h242q-8 -361 -299 -361q-63 0 -100 16.5 t-80 49.5q-23 18 -40 27t-38 9q-53 0 -61 -98h-242zM514 512q0 -88 8 -133t28.5 -63.5t61.5 -18.5t61.5 18.5t29 63.5t8.5 133t-8.5 133t-29 63.5t-61.5 18.5t-61.5 -18.5t-28.5 -63.5t-8 -133z" />
<glyph unicode="&#xf6;" horiz-adv-x="1224" d="M41 512q0 254 149.5 393t421.5 139q273 0 422.5 -139t149.5 -393t-149.5 -393t-422.5 -139q-272 0 -421.5 139t-149.5 393zM157 1288q0 88 54.5 137.5t154.5 49.5q103 0 159 -48.5t56 -138.5t-56 -138t-159 -48q-100 0 -154.5 49t-54.5 137zM514 512q0 -88 8 -133 t28.5 -63.5t61.5 -18.5t61.5 18.5t29 63.5t8.5 133t-8.5 133t-29 63.5t-61.5 18.5t-61.5 -18.5t-28.5 -63.5t-8 -133zM643 1288q0 88 54 137.5t155 49.5q102 0 158.5 -48.5t56.5 -138.5t-56.5 -138t-158.5 -48q-100 0 -154.5 49t-54.5 137z" />
<glyph unicode="&#xf7;" horiz-adv-x="1236" d="M90 520v314h1057v-314h-1057zM422 209q0 90 51 140t145 50q93 0 144 -50t51 -140t-51 -139.5t-144 -49.5q-94 0 -145 49.5t-51 139.5zM422 1143q0 90 51 140t145 50q93 0 144 -50t51 -140t-51 -139.5t-144 -49.5q-94 0 -145 49.5t-51 139.5z" />
<glyph unicode="&#xf8;" horiz-adv-x="1224" d="M41 512q0 254 149.5 393t421.5 139q195 1 334 -75l76 96h137l-127 -158q152 -139 152 -395q0 -254 -149.5 -393t-422.5 -139q-188 0 -317 67l-68 -90h-137l115 149q-164 139 -164 406zM514 446h2l31 52l141 190q-18 39 -76 39q-41 0 -61.5 -18.5t-28.5 -63.5t-8 -133v-66 zM545 324q18 -27 67 -27q41 0 61.5 18.5t29 63.5t8.5 133v39h-2l-31 -49z" />
<glyph unicode="&#xf9;" horiz-adv-x="1269" d="M78 332v692h471v-575q0 -68 17.5 -94.5t58.5 -26.5q94 0 94 161v535h471v-1024h-424l-10 217q-45 -119 -132 -178t-214 -59q-164 0 -248 85t-84 267zM250 1495h420l123 -362h-332z" />
<glyph unicode="&#xfa;" horiz-adv-x="1269" d="M78 332v692h471v-575q0 -68 17.5 -94.5t58.5 -26.5q94 0 94 161v535h471v-1024h-424l-10 217q-45 -119 -132 -178t-214 -59q-164 0 -248 85t-84 267zM428 1133l123 362h420l-211 -362h-332z" />
<glyph unicode="&#xfb;" horiz-adv-x="1269" d="M78 332v692h471v-575q0 -68 17.5 -94.5t58.5 -26.5q94 0 94 161v535h471v-1024h-424l-10 217q-45 -119 -132 -178t-214 -59q-164 0 -248 85t-84 267zM187 1120l217 363h438l217 -363h-319l-117 146l-117 -146h-319z" />
<glyph unicode="&#xfc;" horiz-adv-x="1269" d="M78 332v692h471v-575q0 -68 17.5 -94.5t58.5 -26.5q94 0 94 161v535h471v-1024h-424l-10 217q-45 -119 -132 -178t-214 -59q-164 0 -248 85t-84 267zM168 1288q0 88 54.5 137.5t154.5 49.5q103 0 159 -48.5t56 -138.5t-56 -138t-159 -48q-100 0 -154.5 49t-54.5 137z M654 1288q0 88 54 137.5t155 49.5q102 0 158.5 -48.5t56.5 -138.5t-56.5 -138t-158.5 -48q-100 0 -154.5 49t-54.5 137z" />
<glyph unicode="&#xfd;" horiz-adv-x="1216" d="M-16 1024h514l92 -528l39 -240l45 242l102 526h461l-301 -909q-70 -207 -152 -327t-196.5 -174t-282.5 -54q-190 0 -315 67l86 297q33 -18 71.5 -26.5t110.5 -8.5q66 0 97.5 12.5t43.5 43.5l7 16l-130 301zM467 1133l123 362h420l-211 -362h-332z" />
<glyph unicode="&#xfe;" horiz-adv-x="1284" d="M80 -430v1864h471v-613q39 104 114.5 163.5t190.5 59.5q105 0 189.5 -54t136 -169.5t51.5 -292.5q0 -211 -63.5 -333.5t-152.5 -168.5t-179 -46q-201 0 -287 178v-588h-471zM551 504q0 -98 24.5 -145.5t75.5 -47.5q62 0 84.5 41t22.5 160t-22.5 161t-84.5 42 q-49 0 -74.5 -46t-25.5 -149v-16z" />
<glyph unicode="&#xff;" horiz-adv-x="1216" d="M-16 1024h514l92 -528l39 -240l45 242l102 526h461l-301 -909q-70 -207 -152 -327t-196.5 -174t-282.5 -54q-190 0 -315 67l86 297q33 -18 71.5 -26.5t110.5 -8.5q66 0 97.5 12.5t43.5 43.5l7 16l-130 301zM207 1288q0 88 54.5 137.5t154.5 49.5q103 0 159 -48.5 t56 -138.5t-56 -138t-159 -48q-100 0 -154.5 49t-54.5 137zM693 1288q0 88 54 137.5t155 49.5q102 0 158.5 -48.5t56.5 -138.5t-56.5 -138t-158.5 -48q-100 0 -154.5 49t-54.5 137z" />
<glyph unicode="&#x152;" horiz-adv-x="2103" d="M59 676q0 219 79 375.5t223.5 238.5t338.5 82q250 0 410 -155v135h936v-351h-643v-167h518v-324h-518v-160h668v-350h-961v135q-160 -156 -410 -155q-195 0 -339 81.5t-223 238.5t-79 376zM537 676q0 -176 46 -257t144 -81q104 0 151.5 81t47.5 257t-47.5 257t-151.5 81 q-98 0 -144 -81t-46 -257z" />
<glyph unicode="&#x153;" horiz-adv-x="1904" d="M41 512q0 252 145.5 392t397.5 140q254 0 381 -151q123 152 354 151q264 0 404.5 -135t140.5 -364q-1 -78 -11 -123h-651q10 -76 43 -102.5t98 -26.5q100 0 123 88l379 -102q-35 -147 -171 -223t-331 -76q-250 0 -376 151q-129 -152 -383 -151q-252 0 -397.5 140 t-145.5 392zM516 512q0 -88 8 -134t28.5 -63.5t59.5 -17.5q41 0 61.5 17.5t29 63.5t8.5 134t-8.5 134t-30 64.5t-60.5 18.5t-59.5 -18.5t-28.5 -64.5t-8 -134zM1202 596h221q-6 70 -29.5 103.5t-72.5 33.5q-53 0 -82 -30.5t-37 -106.5z" />
<glyph unicode="&#x178;" horiz-adv-x="1460" d="M18 1352h476l143 -310l96 -245l96 245l144 310h469l-473 -883v-469h-477v469zM274 1616q0 88 54.5 137.5t154.5 49.5q103 0 159 -48.5t56 -138.5t-56 -138t-159 -48q-100 0 -154.5 49t-54.5 137zM760 1616q0 88 54 137.5t155 49.5q102 0 158.5 -48.5t56.5 -138.5 t-56.5 -138t-158.5 -48q-100 0 -154.5 49t-54.5 137z" />
<glyph unicode="&#x2c6;" horiz-adv-x="1024" d="M76 1120l217 363h438l217 -363h-319l-117 146l-117 -146h-319z" />
<glyph unicode="&#x2dc;" horiz-adv-x="1024" d="M82 1116q8 360 299 361q63 0 100 -16.5t80 -49.5q23 -18 40 -27.5t38 -9.5q29 0 43 23.5t18 75.5h242q-8 -361 -299 -361q-63 0 -100 16.5t-80 49.5q-23 18 -40 27t-38 9q-53 0 -61 -98h-242z" />
<glyph unicode="&#x2000;" horiz-adv-x="902" />
<glyph unicode="&#x2001;" horiz-adv-x="1805" />
<glyph unicode="&#x2002;" horiz-adv-x="902" />
<glyph unicode="&#x2003;" horiz-adv-x="1805" />
<glyph unicode="&#x2004;" horiz-adv-x="601" />
<glyph unicode="&#x2005;" horiz-adv-x="451" />
<glyph unicode="&#x2006;" horiz-adv-x="300" />
<glyph unicode="&#x2007;" horiz-adv-x="300" />
<glyph unicode="&#x2008;" horiz-adv-x="225" />
<glyph unicode="&#x2009;" horiz-adv-x="361" />
<glyph unicode="&#x200a;" horiz-adv-x="100" />
<glyph unicode="&#x2010;" horiz-adv-x="1105" d="M154 377v358h798v-358h-798z" />
<glyph unicode="&#x2011;" horiz-adv-x="1105" d="M154 377v358h798v-358h-798z" />
<glyph unicode="&#x2012;" horiz-adv-x="1105" d="M154 377v358h798v-358h-798z" />
<glyph unicode="&#x2013;" horiz-adv-x="1454" d="M154 377v358h1146v-358h-1146z" />
<glyph unicode="&#x2014;" horiz-adv-x="2048" d="M154 377v358h1740v-358h-1740z" />
<glyph unicode="&#x2018;" horiz-adv-x="655" d="M68 948q0 152 84 272.5t241 184.5l199 -127q-113 -47 -185.5 -99.5t-105.5 -125.5l10 -9q27 29 66 29q84 0 146.5 -52t62.5 -151q0 -115 -66.5 -171t-185.5 -56q-133 0 -199.5 86t-66.5 219z" />
<glyph unicode="&#x2019;" horiz-adv-x="655" d="M76 764q113 47 185.5 99t105.5 126l-11 8q-27 -29 -65 -28q-84 0 -146.5 52t-62.5 150q0 115 66.5 171.5t185.5 56.5q133 0 199.5 -86t66.5 -219q0 -152 -84 -273t-242 -184z" />
<glyph unicode="&#x201a;" horiz-adv-x="626" d="M45 -213q113 47 185.5 99.5t105.5 125.5l-10 8q-27 -29 -66 -28q-84 0 -146.5 52t-62.5 151q0 115 66.5 171t185.5 56q133 0 199.5 -86t66.5 -219q0 -152 -84 -272.5t-241 -184.5z" />
<glyph unicode="&#x201c;" horiz-adv-x="1234" d="M68 948q0 152 84 272.5t241 184.5l199 -127q-113 -47 -185.5 -99.5t-105.5 -125.5l10 -9q27 29 66 29q84 0 146.5 -52t62.5 -151q0 -115 -66.5 -171t-185.5 -56q-133 0 -199.5 86t-66.5 219zM648 948q0 152 84 272.5t241 184.5l199 -127q-113 -47 -185.5 -99.5 t-105.5 -125.5l10 -9q27 29 66 29q84 0 146.5 -52t62.5 -151q0 -115 -66.5 -171t-185.5 -56q-133 0 -199.5 86t-66.5 219z" />
<glyph unicode="&#x201d;" horiz-adv-x="1218" d="M76 764q113 47 185.5 99t105.5 126l-11 8q-27 -29 -65 -28q-84 0 -146.5 52t-62.5 150q0 115 66.5 171.5t185.5 56.5q133 0 199.5 -86t66.5 -219q0 -152 -84 -273t-242 -184zM639 764q113 47 185.5 99t105.5 126l-11 8q-27 -29 -65 -28q-84 0 -146.5 52t-62.5 150 q0 115 66.5 171.5t185.5 56.5q133 0 199.5 -86t66.5 -219q0 -152 -84 -273t-242 -184z" />
<glyph unicode="&#x201e;" horiz-adv-x="1189" d="M45 -213q113 47 185.5 99.5t105.5 125.5l-10 8q-27 -29 -66 -28q-84 0 -146.5 52t-62.5 151q0 115 66.5 171t185.5 56q133 0 199.5 -86t66.5 -219q0 -152 -84 -272.5t-241 -184.5zM608 -213q113 47 185.5 99.5t105.5 125.5l-10 8q-27 -29 -66 -28q-84 0 -146.5 52 t-62.5 151q0 115 66.5 171t185.5 56q133 0 199.5 -86t66.5 -219q0 -152 -84 -272.5t-241 -184.5z" />
<glyph unicode="&#x2022;" horiz-adv-x="880" d="M86 676q0 164 93 253t261 89t261.5 -89t93.5 -253t-93.5 -253t-261.5 -89t-261 89t-93 253z" />
<glyph unicode="&#x2026;" horiz-adv-x="1957" d="M67 203q0 104 66 161.5t186 57.5q121 0 186.5 -57.5t65.5 -161.5t-65.5 -161.5t-186.5 -57.5t-186.5 57t-65.5 162zM727 203q0 104 66 161.5t186 57.5q121 0 186.5 -57.5t65.5 -161.5t-65.5 -161.5t-186.5 -57.5t-186.5 57t-65.5 162zM1386 203q0 104 66 161.5t186 57.5 q121 0 186.5 -57.5t65.5 -161.5t-65.5 -161.5t-186.5 -57.5t-186.5 57t-65.5 162z" />
<glyph unicode="&#x202f;" horiz-adv-x="361" />
<glyph unicode="&#x2039;" horiz-adv-x="739" d="M49 543l256 401h385l-237 -401l237 -402h-385z" />
<glyph unicode="&#x203a;" horiz-adv-x="739" d="M49 141l238 402l-238 401h385l256 -401l-256 -402h-385z" />
<glyph unicode="&#x205f;" horiz-adv-x="451" />
<glyph unicode="&#x20ac;" horiz-adv-x="1439" d="M0 457v135h162q-4 53 -4 84t2 47h-160v135h174q47 246 223 380t449 134q213 0 369.5 -87t197.5 -236l-332 -156q-4 88 -63.5 127t-149.5 39q-111 0 -176 -49t-92 -152h393l-61 -135h-350v-47q0 -57 2 -84h346l-53 -135h-269q29 -82 89.5 -123t162.5 -41q174 0 203 168 l348 -96q-39 -193 -188.5 -289t-376.5 -96q-262 0 -434 123.5t-230 353.5h-182z" />
<glyph unicode="&#x2122;" horiz-adv-x="1683" d="M0 1174v178h668v-178h-211v-498h-246v498h-211zM727 676v676h369l73 -269l27 -131h6l27 131l76 269h358v-676h-242v227l9 230h-7l-53 -201l-72 -256h-204l-72 258l-53 199h-6l8 -230v-227h-244z" />
<glyph unicode="&#x25fc;" horiz-adv-x="1024" d="M0 0v1024h1024v-1024h-1024z" />
</font>
</defs>
</svg>
